Начать новую тему Ответить на тему
Статистика раздачи
Размер: 270.09 МБ | Добавлен: 26 мар 2019, 19:33 | Скачали: 0
Сидеров: 0  [0 байт/сек]    Личеров: 0  [0 байт/сек]
Пред. тема | След. тема 

Автор
Сообщение

СообщениеДобавлено: 26 мар 2019, 19:33 

Ответить с цитатой 

EAV (Erste Allgemeine Verunsicherung) / Geld Oder Leben!
Жанр: Pop-Rock/Humor
Носитель: CD
Год издания: 1985
Издатель (лейбл): EMI Austria
Номер по каталогу: CD 568-7 46230 2
Страна исполнителя (группы): Austria
Аудиокодек: FLAC (*.flac)
Тип рипа: image+.cue
Битрейт аудио: lossless
Продолжительность: 00:42:44
Источник (релизер): оригинальный релиз
Наличие сканов в содержимом раздачи: да
Треклист:
01. Geld Oder Leben [00:04:48]
02. Johnny 1 - Fahrscheine [00:00:43]
03. Ba-Ba-Banküberfall [00:03:36]
04. Johnny 2 - Zuckerwatte [00:00:33]
05. Heisse Nächte (In Palermo) [00:03:32]
06. Einsamkeit [00:04:20]
07. Fata Morgana [00:04:20]
08. Märchenprinz [00:03:32]
09. Johnny 3 - Bullen [00:00:27]
10. Helden [00:04:11]
11. Johnny 4 - Feuer [00:00:18]
12. Küss Die Hand Herr K. (Kerkermeister) [00:04:51]
13. Johnny 5 - WC [00:00:29]
14. Es Gewinnt A Jeder... [00:03:22]
15. Morgen [00:03:42]
Код:
Exact Audio Copy V1.1 from 23. June 2015
EAC extraction logfile from 4. September 2015, 23:04
Erste Allgemeine Verunsicherung / Geld oder Leben
Used drive  : TSSTcorpCDDVDW SH-224FB   Adapter: 1  ID: 0
Read mode               : Secure
Utilize accurate stream : Yes
Defeat audio cache      : Yes
Make use of C2 pointers : No
Read offset correction                      : 6
Overread into Lead-In and Lead-Out          : No
Fill up missing offset samples with silence : Yes
Delete leading and trailing silent blocks   : No
Null samples used in CRC calculations       : Yes
Used interface                              : Native Win32 interface for Win NT & 2000
Used output format : Internal WAV Routines
Sample format      : 44.100 Hz; 16 Bit; Stereo
TOC of the extracted CD
     Track |   Start  |  Length  | Start sector | End sector
    ---------------------------------------------------------
        1  |  0:00.32 |  4:48.20 |        32    |    21651
        2  |  4:48.52 |  0:43.03 |     21652    |    24879
        3  |  5:31.55 |  3:36.10 |     24880    |    41089
        4  |  9:07.65 |  0:32.47 |     41090    |    43536
        5  |  9:40.37 |  3:31.48 |     43537    |    59409
        6  | 13:12.10 |  4:20.30 |     59410    |    78939
        7  | 17:32.40 |  4:20.12 |     78940    |    98451
        8  | 21:52.52 |  3:31.45 |     98452    |   114321
        9  | 25:24.22 |  0:27.18 |    114322    |   116364
       10  | 25:51.40 |  4:11.37 |    116365    |   135226
       11  | 30:03.02 |  0:17.68 |    135227    |   136569
       12  | 30:20.70 |  4:50.47 |    136570    |   158366
       13  | 35:11.42 |  0:28.48 |    158367    |   160514
       14  | 35:40.15 |  3:21.42 |    160515    |   175631
       15  | 39:01.57 |  3:42.33 |    175632    |   192314
Range status and errors
Selected range
     Filename C:\Users\KDE\Downloads\#mp3\EAV - 1985\Erste Allgemeine Verunsicherung - Geld oder Leben (1985).wav
     Peak level 81.8 %
     Extraction speed 2.4 X
     Range quality 100.0 %
     Test CRC 5F101B7C
     Copy CRC 5F101B7C
     Copy OK
No errors occurred
AccurateRip summary
Track  1  accurately ripped (confidence 5)  [46AAEF03]  (AR v2)
Track  2  accurately ripped (confidence 5)  [07028D1E]  (AR v2)
Track  3  accurately ripped (confidence 5)  [1F22FC5E]  (AR v2)
Track  4  accurately ripped (confidence 5)  [AA8CACBE]  (AR v2)
Track  5  accurately ripped (confidence 5)  [5CC687A3]  (AR v2)
Track  6  accurately ripped (confidence 5)  [1CC6DBF4]  (AR v2)
Track  7  accurately ripped (confidence 5)  [3277FC75]  (AR v2)
Track  8  accurately ripped (confidence 5)  [547D4172]  (AR v2)
Track  9  accurately ripped (confidence 6)  [D2A48C9D]  (AR v2)
Track 10  accurately ripped (confidence 6)  [8AD0028C]  (AR v2)
Track 11  accurately ripped (confidence 6)  [EE9363D1]  (AR v2)
Track 12  accurately ripped (confidence 6)  [7AB8D465]  (AR v2)
Track 13  accurately ripped (confidence 6)  [B07013E5]  (AR v2)
Track 14  accurately ripped (confidence 6)  [FA0E199A]  (AR v2)
Track 15  accurately ripped (confidence 6)  [D8616FEF]  (AR v2)
All tracks accurately ripped
End of status report
---- CUETools DB Plugin V2.1.6
[CTDB TOCID: p6fLZcnJ98Tn0OcS.cDh5dZ93yg-] found
Submit result: p6fLZcnJ98Tn0OcS.cDh5dZ93yg- has been confirmed
Track | CTDB Status
  1   | (60/62) Accurately ripped
  2   | (60/62) Accurately ripped
  3   | (60/62) Accurately ripped
  4   | (60/62) Accurately ripped
  5   | (59/62) Accurately ripped
  6   | (59/62) Accurately ripped
  7   | (60/62) Accurately ripped
  8   | (59/62) Accurately ripped
  9   | (60/62) Accurately ripped
 10   | (60/62) Accurately ripped
 11   | (61/62) Accurately ripped
 12   | (59/62) Accurately ripped
 13   | (60/62) Accurately ripped
 14   | (59/62) Accurately ripped
 15   | (59/62) Accurately ripped
Код:
REM GENRE "Pop-Rock"
REM DATE 1985
REM DISCID B10A040F
PERFORMER "Erste Allgemeine Verunsicherung"
TITLE "Geld oder Leben!"
CATALOG 0077774623025
REM DISCNUMBER 1
REM TOTALDISCS 1
FILE "Erste Allgemeine Verunsicherung - Geld oder Leben!.flac" WAVE
  TRACK 01 AUDIO
    TITLE "Geld oder Leben"
    PERFORMER "Erste Allgemeine Verunsicherung"
    INDEX 00 00:00:00
    INDEX 01 00:00:32
  TRACK 02 AUDIO
    TITLE "Johnny 1: Fahrscheine"
    PERFORMER "Erste Allgemeine Verunsicherung"
    INDEX 01 04:48:52
  TRACK 03 AUDIO
    TITLE "Ba-Ba-Banküberfall"
    PERFORMER "Erste Allgemeine Verunsicherung"
    INDEX 01 05:31:55
  TRACK 04 AUDIO
    TITLE "Johnny 2: Zuckerwatte"
    PERFORMER "Erste Allgemeine Verunsicherung"
    INDEX 01 09:07:65
  TRACK 05 AUDIO
    TITLE "Heiße Nächte (in Palermo)"
    PERFORMER "Erste Allgemeine Verunsicherung"
    INDEX 01 09:40:37
  TRACK 06 AUDIO
    TITLE "Einsamkeit"
    PERFORMER "Erste Allgemeine Verunsicherung"
    INDEX 00 13:08:65
    INDEX 01 13:12:10
  TRACK 07 AUDIO
    TITLE "Fata Morgana"
    PERFORMER "Erste Allgemeine Verunsicherung"
    INDEX 00 17:29:45
    INDEX 01 17:32:40
  TRACK 08 AUDIO
    TITLE "Märchenprinz"
    PERFORMER "Erste Allgemeine Verunsicherung"
    INDEX 00 21:51:27
    INDEX 01 21:52:52
  TRACK 09 AUDIO
    TITLE "Johnny 3: Bullen"
    PERFORMER "Erste Allgemeine Verunsicherung"
    INDEX 01 25:24:22
  TRACK 10 AUDIO
    TITLE "Helden"
    PERFORMER "Erste Allgemeine Verunsicherung"
    INDEX 01 25:51:40
  TRACK 11 AUDIO
    TITLE "Johnny 4: Feuer"
    PERFORMER "Erste Allgemeine Verunsicherung"
    INDEX 01 30:03:02
  TRACK 12 AUDIO
    TITLE "Küss' die Hand Herr K. (Kerkermeister)"
    PERFORMER "Erste Allgemeine Verunsicherung"
    INDEX 01 30:20:70
  TRACK 13 AUDIO
    TITLE "Johnny 5: WC"
    PERFORMER "Erste Allgemeine Verunsicherung"
    INDEX 01 35:11:42
  TRACK 14 AUDIO
    TITLE "Es g'winnt a jeder"
    PERFORMER "Erste Allgemeine Verunsicherung"
    INDEX 01 35:40:15
  TRACK 15 AUDIO
    TITLE "Morgen..."
    PERFORMER "Erste Allgemeine Verunsicherung"
    INDEX 00 39:00:17
    INDEX 01 39:01:57
Код:
foobar2000 1.3.8 / Dynamic Range Meter 1.1.1
log date: 2015-09-04 23:37:45
--------------------------------------------------------------------------------
Analyzed: Erste Allgemeine Verunsicherung / Geld Oder Leben!
--------------------------------------------------------------------------------
DR         Peak         RMS     Duration Track
--------------------------------------------------------------------------------
DR12      -1.73 dB   -16.75 dB      4:48 01-Geld Oder Leben
DR14      -5.59 dB   -23.73 dB      0:43 02-Johnny 1 - Fahrscheine
DR12      -2.01 dB   -16.50 dB      3:36 03-Ba-Ba-Banküberfall
DR13      -5.21 dB   -22.32 dB      0:33 04-Johnny 2 - Zuckerwatte
DR13      -2.37 dB   -17.53 dB      3:32 05-Heisse Nächte (In Palermo)
DR13      -2.08 dB   -18.26 dB      4:20 06-Einsamkeit
DR13      -2.38 dB   -18.49 dB      4:20 07-Fata Morgana
DR13      -2.19 dB   -17.55 dB      3:32 08-Märchenprinz
DR10      -6.15 dB   -21.66 dB      0:27 09-Johnny 3 - Bullen
DR12      -2.48 dB   -17.14 dB      4:11 10-Helden
DR13      -5.37 dB   -24.73 dB      0:18 11-Johnny 4 - Feuer
DR12      -2.32 dB   -16.40 dB      4:51 12-Küss' Die Hand Herr K. (Kerkermeister)
DR14      -7.74 dB   -26.30 dB      0:29 13-Johnny 5 - WC
DR12      -1.78 dB   -16.78 dB      3:22 14-Es G'winnt A Jeder
DR12      -4.59 dB   -20.28 dB      3:42 15-Morgen...
--------------------------------------------------------------------------------
Number of tracks:  15
Official DR value: DR13
Samplerate:        44100 Hz
Channels:          2
Bits per sample:   16
Bitrate:           850 kbps
Codec:             FLAC
================================================================================
Правила, инструкции, FAQ!!!
Торрент  Добавлен [26 мар 2019, 19:33] Скачать торрент Магнет ссылка
Скачать торрент
[ Размер 11.59 КБ / Просмотров 1 ]

Статус
Проверен 
 
Размер  270.09 МБ
Приватный: Нет (DHT включён)
.torrent скачан  0
 


     Отправить личное сообщение
   
Страница 1 из 1
Показать сообщения за:  Поле сортировки  
Начать новую тему Ответить на тему


Сейчас этот форум просматривают: нет зарегистрированных пользователей и гости: 0


Вы не можете начинать темы
Вы не можете отвечать на сообщения
Вы не можете редактировать свои сообщения
Вы не можете удалять свои сообщения
Вы не можете добавлять вложения

Перейти:  
cron