Начать новую тему Ответить на тему
Статистика раздачи
Размер: 353.4 МБ | Добавлен: 26 мар 2019, 18:43 | Скачали: 0
Сидеров: 0  [0 байт/сек]    Личеров: 0  [0 байт/сек]
Пред. тема | След. тема 

Автор
Сообщение

СообщениеДобавлено: 26 мар 2019, 18:43 

Ответить с цитатой 

Horizont / Прекалено любопитни
Жанр: Pop Rock, BG
Носитель: CD
Страна-производитель диска (релиза): BG
Год издания: 2014
Номер по каталогу: 56598
Страна исполнителя (группы): BG
Аудиокодек: FLAC (*.flac)
Тип рипа: image+.cue
Битрейт аудио: lossless
Продолжительность: 0:44:29
Источник (релизер): Я
Наличие сканов в содержимом раздачи: да
Треклист:
01. Чуй ме
02. Няма да те дам
03. Не заспивам без теб
04. Било е писано
05. Пътувайки за любовта
06. Сияеща звезда
07. Не ме обичаш
08. Отворете вратите
09. Сълзите ти вярват на моята длан
10. Време
11. Нали мъжете не плачат
Код:
Exact Audio Copy V1.0 beta 3 from 29. August 2011
EAC extraction logfile from 1. February 2015, 18:43
Horizont / Прекалено любопитни
Used drive  : HL-DT-STDVD-RAM GH15L   Adapter: 0  ID: 1
Read mode               : Secure
Utilize accurate stream : Yes
Defeat audio cache      : Yes
Make use of C2 pointers : No
Read offset correction                      : 667
Overread into Lead-In and Lead-Out          : No
Fill up missing offset samples with silence : Yes
Delete leading and trailing silent blocks   : No
Null samples used in CRC calculations       : Yes
Used interface                              : Native Win32 interface for Win NT & 2000
Used output format              : User Defined Encoder
Selected bitrate                : 768 kBit/s
Quality                         : High
Add ID3 tag                     : No
Command line compressor         : D:\Programs\EAC\Flac\flac.exe
Additional command line options : -V -8 -T "Date=%year%" -T "Genre=%genre%" %source%
TOC of the extracted CD
     Track |   Start  |  Length  | Start sector | End sector
    ---------------------------------------------------------
        1  |  0:00.00 |  3:49.09 |         0    |    17183
        2  |  3:49.09 |  4:26.43 |     17184    |    37176
        3  |  8:15.52 |  3:42.39 |     37177    |    53865
        4  | 11:58.16 |  5:15.21 |     53866    |    77511
        5  | 17:13.37 |  4:30.49 |     77512    |    97810
        6  | 21:44.11 |  3:59.50 |     97811    |   115785
        7  | 25:43.61 |  3:25.27 |    115786    |   131187
        8  | 29:09.13 |  4:37.37 |    131188    |   151999
        9  | 33:46.50 |  4:05.42 |    152000    |   170416
       10  | 37:52.17 |  4:15.61 |    170417    |   189602
       11  | 42:08.03 |  4:21.49 |    189603    |   209226
Range status and errors
Selected range
     Filename F:\Lossless\Horizont 2014 Прекалено любопитни\Horizont - Прекалено любопитни.wav
     Peak level 99.8 %
     Extraction speed 5.4 X
     Range quality 100.0 %
     Test CRC BE62742A
     Copy CRC BE62742A
     Copy OK
No errors occurred
AccurateRip summary
Track  1  not present in database
Track  2  not present in database
Track  3  not present in database
Track  4  not present in database
Track  5  not present in database
Track  6  not present in database
Track  7  not present in database
Track  8  not present in database
Track  9  not present in database
Track 10  not present in database
Track 11  not present in database
None of the tracks are present in the AccurateRip database
End of status report
==== Log checksum E86A4EBDE2A666E2DBD58712BAEF95C0C18B4F9BF196E47F39A98A73C175DBBA ====
Код:
REM GENRE Rock
REM DATE 2014
REM DISCID 7A0AE50B
REM COMMENT "ExactAudioCopy v1.0b3"
PERFORMER "Horizont"
TITLE "Прекалено любопитни"
FILE "Horizont - Прекалено любопитни.flac" WAVE
  TRACK 01 AUDIO
    TITLE "Чуй ме"
    PERFORMER "Horizont"
    FLAGS DCP
    INDEX 01 00:00:00
  TRACK 02 AUDIO
    TITLE "Няма да те дам"
    PERFORMER "Horizont"
    FLAGS DCP
    INDEX 00 03:47:09
    INDEX 01 03:49:09
  TRACK 03 AUDIO
    TITLE "Не заспивам без теб"
    PERFORMER "Horizont"
    FLAGS DCP
    INDEX 00 08:13:52
    INDEX 01 08:15:52
  TRACK 04 AUDIO
    TITLE "Било е писано"
    PERFORMER "Horizont"
    FLAGS DCP
    INDEX 00 11:56:16
    INDEX 01 11:58:16
  TRACK 05 AUDIO
    TITLE "Пътувайки за любовта"
    PERFORMER "Horizont"
    FLAGS DCP
    INDEX 00 17:11:37
    INDEX 01 17:13:37
  TRACK 06 AUDIO
    TITLE "Сияеща звезда"
    PERFORMER "Horizont"
    FLAGS DCP
    INDEX 00 21:42:11
    INDEX 01 21:44:11
  TRACK 07 AUDIO
    TITLE "Не ме обичаш"
    PERFORMER "Horizont"
    FLAGS DCP
    INDEX 00 25:41:61
    INDEX 01 25:43:61
  TRACK 08 AUDIO
    TITLE "Отворете вратите"
    PERFORMER "Horizont"
    FLAGS DCP
    INDEX 00 29:07:13
    INDEX 01 29:09:13
  TRACK 09 AUDIO
    TITLE "Сълзите ти вярват на моята длан"
    PERFORMER "Horizont"
    FLAGS DCP
    INDEX 00 33:44:50
    INDEX 01 33:46:50
  TRACK 10 AUDIO
    TITLE "Време"
    PERFORMER "Horizont"
    FLAGS DCP
    INDEX 00 37:50:17
    INDEX 01 37:52:17
  TRACK 11 AUDIO
    TITLE "Нали мъжете не плачат"
    PERFORMER "Horizont"
    FLAGS DCP
    INDEX 00 42:06:03
    INDEX 01 42:08:03
Доп. информация: http://www.youtube.com/watch?x-yt-cl=85114404&v=c_gDStDzxOY
Група ХОРИЗОНТ е една от малкото български групи, която устоява на своят стил и посока, независимо от моментните вкусове на масовата аудитория. Група, която не разчита на случаен бум в своята популярност, а работи последователно. Това го доказват все по-голeмият брой искрени почитатели на тяхната музика.
Може би вече всички фенове на ХОРИЗОНТ знаят, че те са единствената българска група разполагаща със собствено професионално концертно оборудване. Дори в световен мащаб са много малко групите,които съумяват да поддържат собствено оборудване (повечето изпълнители наемат апаратура от специализирани фирми). Всичко това, прави ХОРИЗОНТ уникална група в това отношение в България.
Над 3000 концерта, 3 участия на международни фестивали, песен издадена от ЕMI в САЩ (“Ще избягам”), четири албума - “Нарисувай”, “Нежно”, „Откривам злато” и "Прекалено любопитни", запис на първата официална кавърверсия ( "До последен дъх" ), първото и единствено в историята на българската музика радио-турне, за 5 дни посетени над 50 радиостанции в цялата страна с акустични изпълнения на живо, филм за групата - “Рок банда”, собствена апаратура, екип и транспорт, 14 месечни клубни изяви в Южна Корея, клубни изяви във веригата „Club 49” в Дубай, първия български кавъралбум с песни на български банди от предишното поколение ("Откривам злато" 2007 г.) – това са неща които не могат да останат незабелязани, и въпреки това медиите са с една крачка назад в отразяване дейността на групата. Именно, затова ХОРИЗОНТ толкова много държат на своите фенове и на тяхната безрезервна подкрепа!
Четвертый албом, посвящен 20 - летию группы.. Можно слышатз, как и прежних 3 албома на оффсайте группы: horizont-band.com
Валери Славчев - Вокали, китари
Валери Иванов - Бас китара, вокал
Харитон Стаменов - Клавишни инструменти, вокал
Бойко Иванов - Ударни инструменти
Правила, инструкции, FAQ!!!
Торрент  Добавлен [26 мар 2019, 18:43] Скачать торрент Магнет ссылка
Скачать торрент
[ Размер 14.89 КБ / Просмотров 1 ]

Статус
Проверен 
 
Размер  353.4 МБ
Приватный: Нет (DHT включён)
.torrent скачан  0
 


     Отправить личное сообщение
   
Страница 1 из 1
Показать сообщения за:  Поле сортировки  
Начать новую тему Ответить на тему


Сейчас этот форум просматривают: нет зарегистрированных пользователей и гости: 0


Вы не можете начинать темы
Вы не можете отвечать на сообщения
Вы не можете редактировать свои сообщения
Вы не можете удалять свои сообщения
Вы не можете добавлять вложения

Перейти:  
cron