Начать новую тему Ответить на тему
Статистика раздачи
Размер: 115.1 МБ | Добавлен: 26 мар 2019, 19:46 | Скачали: 0
Сидеров: 3  [0 байт/сек]    Личеров: 0  [0 байт/сек]
Пред. тема | След. тема 

Автор
Сообщение

СообщениеДобавлено: 26 мар 2019, 19:46 

Ответить с цитатой 

Hooters - Johnny B
(CD-Single)
Жанр: Pop Rock
Носитель: CDS
Страна-производитель диска (релиза): Germany
Год издания: 1988
Издатель (лейбл): CBS
Номер по каталогу: 650982 2
Страна исполнителя (группы): US
Аудиокодек: FLAC (*.flac)
Тип рипа: image+.cue
Битрейт аудио: lossless
Продолжительность: 0:16:20
Источник (релизер): DENnv
Наличие сканов в содержимом раздачи: да
Треклист:
1 Johnny B - 3:58
2 Lucy In The Sky With Diamonds (Live at The Tower Theatre, Philadelphia, PA, 1985) - 4:08
3 Satellite - 4:08
4 And We Danced - 3:48


Код:
Exact Audio Copy V1.0 beta 3 from 29. August 2011
Отчёт EAC об извлечении, выполненном 15. января 2015, 1:59
Hooters / Johnny B (CDM)
Дисковод: TSSTcorpCDDVDW SH-224DB   Adapter: 2  ID: 0
Режим чтения                 : Достоверность
Использование точного потока : Да
Отключение кэша аудио        : Да
Использование указателей C2  : Нет
Коррекция смещения при чтении                     : 6
Способность читать области Lead-in и Lead-out     : Нет
Заполнение пропущенных сэмплов тишиной            : Да
Удаление блоков с тишиной в начале и конце        : Нет
При вычислениях CRC использовались нулевые сэмплы : Да
Интерфейс                                         : Встроенный Win32-интерфейс для Win NT/2000
Выходной формат          : Пользовательский кодировщик
Выбранный битрейт        : 768 kBit/s
Качество                 : Высокий
Добавление ID3-тега      : Нет
Утилита сжатия           : C:\Program Files (x86)\Exact Audio Copy\FLAC\FLAC.EXE
Дополнительные параметры : -V -8 -T "Date=%year%" -T "Genre=%genre%" %source%
TOC извлечённого CD
     Трек |   Старт  | Длительность | Начальный сектор | Конечный сектор
    ---------------------------------------------------------------------
       1  |  0:00.32 |    4:00.53   |          32      |      18084
       2  |  4:01.10 |    4:10.55   |       18085      |      36889
       3  |  8:11.65 |    4:19.05   |       36890      |      56319
       4  | 12:30.70 |    3:49.27   |       56320      |      73521
Характеристики диапазона извлечения и сообщения об ошибках
Выбранный диапазон
     Имя файла E:\2222222222\NEW\Hooters - Johnny B (CDM) (1988) (lossless-DENnv)\Hooters - Johnny B (CDM).wav
     Пиковый уровень 81.0 %
     Скорость извлечения 2.2 X
     Качество диапазона 100.0 %
     CRC теста A7342C82
     CRC копии A7342C82
     Копирование... OK
Ошибок не произошло
AccurateRip: сводка
Трек  1  : извлечено точно (доверие 1)  [FA5862D0]  (AR v2)
Трек  2  : извлечено точно (доверие 1)  [FD4D50F7]  (AR v2)
Трек  3  : извлечено точно (доверие 1)  [B155D568]  (AR v2)
Трек  4  : извлечено точно (доверие 1)  [7C847BE0]  (AR v2)
Все треки извлечены точно
Конец отчёта
==== Контрольная сумма отчёта 49E19028BC7161A583620F25913A430F54D94BF74007A77F90A454C9F3C0B80A ====

Доп. информация:
Мой рип с фирменного диска, как и все мои лосслесс раздачи.
"СПАСИБО!" и разносторонние комментарии
будут приятны и не дадут теме уйти в неизвестность.

Раздача проходит под девизом:


Правила, инструкции, FAQ!!!
Торрент  Добавлен [26 мар 2019, 19:46] Скачать торрент Магнет ссылка
Скачать торрент
[ Размер 18.81 КБ / Просмотров 10 ]

Статус
Проверен 
 
Размер  115.1 МБ
Приватный: Нет (DHT включён)
.torrent скачан  0
 


     Отправить личное сообщение
   
Страница 1 из 1
Показать сообщения за:  Поле сортировки  
Начать новую тему Ответить на тему


Сейчас этот форум просматривают: нет зарегистрированных пользователей и гости: 0


Вы не можете начинать темы
Вы не можете отвечать на сообщения
Вы не можете редактировать свои сообщения
Вы не можете удалять свои сообщения
Вы не можете добавлять вложения

Перейти:  
cron