Начать новую тему Ответить на тему
Статистика раздачи
Размер: 354.97 МБ | Добавлен: 26 мар 2019, 19:39 | Скачали: 0
Сидеров: 0  [0 байт/сек]    Личеров: 0  [0 байт/сек]
Пред. тема | След. тема 

Автор
Сообщение

СообщениеДобавлено: 26 мар 2019, 19:39 

Ответить с цитатой 

Igaz történet
(2016)

Жанр: Pop/Rock
Носитель: CD
Страна-производитель диска (релиза): Hungary
Год издания: 2016
Издатель (лейбл): HEARHU
Номер по каталогу: 093
Страна исполнителя (группы): Hungary
Аудиокодек: FLAC (*.flac)
Тип рипа: tracks+.cue
Битрейт аудио: lossless
Продолжительность: 00:41:54
Источник (релизер): Naftamusic
Наличие сканов в содержимом раздачи: да
Корректность рипа: В оригинале не было применено сжатие при конвертировании во Флак (FLAC Level 0). Для приведения в соответствие правилам пережато во FLAC Level 5 с сохранением тэгов

01 - Intro (00:02:03)
02 - Másképp (00:02:43)
03 - Magányterület (00:03:24)
04 - Élvezd a csendet (00:03:10)
05 - Seholország (00:03:44)
06 - Éljem túl (00:03:18)
07 - Mondj egy imát (00:03:48)
08 - Szeress, ne háborúzz (00:03:23)
09 - Apám (00:03:46)
10 - Holtverseny (00:02:54)
11 - Igaz történet (feat. Péter Szabó Szilvia) (00:06:03)
12 - Tartson örökké (Lotfi Begi Remix) (00:03:38)
Код:
Exact Audio Copy V1.1 from 23. June 2015
EAC extraction logfile from 10. June 2016, 22:34
Hooligans / Igaz történet
Used drive  : PLEXTOR DVDR   PX-891SA   Adapter: 1  ID: 1
Read mode               : Secure
Utilize accurate stream : Yes
Defeat audio cache      : Yes
Make use of C2 pointers : No
Read offset correction                      : 6
Overread into Lead-In and Lead-Out          : No
Fill up missing offset samples with silence : Yes
Delete leading and trailing silent blocks   : No
Null samples used in CRC calculations       : Yes
Used interface                              : Native Win32 interface for Win NT & 2000
Gap handling                                : Appended to previous track
Used output format              : User Defined Encoder
Selected bitrate                : 1024 kBit/s
Quality                         : High
Add ID3 tag                     : No
Command line compressor         : C:\Program Files (x86)\Exact Audio Copy\Flac\flac.exe
Additional command line options : -0 -V -T "ARTIST=%artist%" -T "TITLE=%title%" -T "ALBUM=%albumtitle%" -T "DATE=%year%" -T "TRACKNUMBER=%tracknr%" -T "TOTALTRACKS=%numtracks%" -T "GENRE=%genre%" -T "COMMENT=Naftamusic Release!" %source%
TOC of the extracted CD
     Track |   Start  |  Length  | Start sector | End sector
    ---------------------------------------------------------
        1  |  0:00.00 |  2:03.37 |         0    |     9261
        2  |  2:03.37 |  2:42.38 |      9262    |    21449
        3  |  4:46.00 |  3:24.00 |     21450    |    36749
        4  |  8:10.00 |  3:10.00 |     36750    |    50999
        5  | 11:20.00 |  3:44.18 |     51000    |    67817
        6  | 15:04.18 |  3:17.57 |     67818    |    82649
        7  | 18:22.00 |  3:48.00 |     82650    |    99749
        8  | 22:10.00 |  3:23.18 |     99750    |   114992
        9  | 25:33.18 |  3:46.19 |    114993    |   131961
       10  | 29:19.37 |  2:53.38 |    131962    |   144974
       11  | 32:13.00 |  6:03.00 |    144975    |   172199
       12  | 38:16.00 |  3:38.00 |    172200    |   188549
Track  1
     Filename E:\Nafta Releases\Hooligans - Igaz történet (2016)[FLAC] - Naftamusic\01 - Intro.wav
     Pre-gap length  0:00:02.00
     Peak level 97.9 %
     Extraction speed 1.1 X
     Track quality 99.9 %
     Test CRC 64899C50
     Copy CRC 64899C50
     Track not present in AccurateRip database
     Copy OK
Track  2
     Filename E:\Nafta Releases\Hooligans - Igaz történet (2016)[FLAC] - Naftamusic\02 - Másképp.wav
     Peak level 97.4 %
     Extraction speed 1.9 X
     Track quality 100.0 %
     Test CRC 2B2DA961
     Copy CRC 2B2DA961
     Track not present in AccurateRip database
     Copy OK
Track  3
     Filename E:\Nafta Releases\Hooligans - Igaz történet (2016)[FLAC] - Naftamusic\03 - Magányterület.wav
     Peak level 97.4 %
     Extraction speed 2.2 X
     Track quality 100.0 %
     Test CRC 93A447B0
     Copy CRC 93A447B0
     Track not present in AccurateRip database
     Copy OK
Track  4
     Filename E:\Nafta Releases\Hooligans - Igaz történet (2016)[FLAC] - Naftamusic\04 - Élvezd a csendet.wav
     Peak level 97.4 %
     Extraction speed 2.3 X
     Track quality 100.0 %
     Test CRC FC0E4966
     Copy CRC FC0E4966
     Track not present in AccurateRip database
     Copy OK
Track  5
     Filename E:\Nafta Releases\Hooligans - Igaz történet (2016)[FLAC] - Naftamusic\05 - Seholország.wav
     Peak level 97.4 %
     Extraction speed 2.5 X
     Track quality 100.0 %
     Test CRC 7BF7636D
     Copy CRC 7BF7636D
     Track not present in AccurateRip database
     Copy OK
Track  6
     Filename E:\Nafta Releases\Hooligans - Igaz történet (2016)[FLAC] - Naftamusic\06 - Éljem túl.wav
     Peak level 97.4 %
     Extraction speed 2.6 X
     Track quality 100.0 %
     Test CRC 50AD1E3C
     Copy CRC 50AD1E3C
     Track not present in AccurateRip database
     Copy OK
Track  7
     Filename E:\Nafta Releases\Hooligans - Igaz történet (2016)[FLAC] - Naftamusic\07 - Mondj egy imát.wav
     Peak level 97.4 %
     Extraction speed 2.8 X
     Track quality 100.0 %
     Test CRC E55A8384
     Copy CRC E55A8384
     Track not present in AccurateRip database
     Copy OK
Track  8
     Filename E:\Nafta Releases\Hooligans - Igaz történet (2016)[FLAC] - Naftamusic\08 - Szeress, ne háborúzz.wav
     Peak level 97.4 %
     Extraction speed 2.9 X
     Track quality 100.0 %
     Test CRC 7B6C10FC
     Copy CRC 7B6C10FC
     Track not present in AccurateRip database
     Copy OK
Track  9
     Filename E:\Nafta Releases\Hooligans - Igaz történet (2016)[FLAC] - Naftamusic\09 - Apám.wav
     Peak level 97.4 %
     Extraction speed 3.0 X
     Track quality 100.0 %
     Test CRC 58410437
     Copy CRC 58410437
     Track not present in AccurateRip database
     Copy OK
Track 10
     Filename E:\Nafta Releases\Hooligans - Igaz történet (2016)[FLAC] - Naftamusic\10 - Holtverseny.wav
     Peak level 97.4 %
     Extraction speed 3.0 X
     Track quality 100.0 %
     Test CRC 92E64A36
     Copy CRC 92E64A36
     Track not present in AccurateRip database
     Copy OK
Track 11
     Filename E:\Nafta Releases\Hooligans - Igaz történet (2016)[FLAC] - Naftamusic\11 - Igaz történet (feat. Péter Szabó Szilvia).wav
     Peak level 97.4 %
     Extraction speed 3.5 X
     Track quality 100.0 %
     Test CRC 7B2E539E
     Copy CRC 7B2E539E
     Track not present in AccurateRip database
     Copy OK
Track 12
     Filename E:\Nafta Releases\Hooligans - Igaz történet (2016)[FLAC] - Naftamusic\12 - Tartson örökké (Lotfi Begi Remix).wav
     Peak level 98.8 %
     Extraction speed 3.4 X
     Track quality 100.0 %
     Test CRC 006A9C36
     Copy CRC 006A9C36
     Track not present in AccurateRip database
     Copy OK
None of the tracks are present in the AccurateRip database
No errors occurred
End of status report
==== Log checksum E821D34DDFB4F144656FAFFBF03110787E739859E64446AA9A6649B37E748768 ====
Код:
REM GENRE Rock
REM DATE 2016
REM DISCID 9D09D20C
REM COMMENT "ExactAudioCopy v1.1"
PERFORMER "Hooligans"
TITLE "Igaz történet"
FILE "01 - Intro.wav" WAVE
  TRACK 01 AUDIO
    TITLE "Intro"
    PERFORMER "Hooligans"
    INDEX 01 00:00:00
FILE "02 - Másképp.wav" WAVE
  TRACK 02 AUDIO
    TITLE "Másképp"
    PERFORMER "Hooligans"
    INDEX 01 00:00:00
FILE "03 - Magányterület.wav" WAVE
  TRACK 03 AUDIO
    TITLE "Magányterület"
    PERFORMER "Hooligans"
    INDEX 01 00:00:00
FILE "04 - Élvezd a csendet.wav" WAVE
  TRACK 04 AUDIO
    TITLE "Élvezd a csendet"
    PERFORMER "Hooligans"
    INDEX 01 00:00:00
FILE "05 - Seholország.wav" WAVE
  TRACK 05 AUDIO
    TITLE "Seholország"
    PERFORMER "Hooligans"
    INDEX 01 00:00:00
FILE "06 - Éljem túl.wav" WAVE
  TRACK 06 AUDIO
    TITLE "Éljem túl"
    PERFORMER "Hooligans"
    INDEX 01 00:00:00
FILE "07 - Mondj egy imát.wav" WAVE
  TRACK 07 AUDIO
    TITLE "Mondj egy imát"
    PERFORMER "Hooligans"
    INDEX 01 00:00:00
FILE "08 - Szeress, ne háborúzz.wav" WAVE
  TRACK 08 AUDIO
    TITLE "Szeress, ne háborúzz"
    PERFORMER "Hooligans"
    INDEX 01 00:00:00
FILE "09 - Apám.wav" WAVE
  TRACK 09 AUDIO
    TITLE "Apám"
    PERFORMER "Hooligans"
    INDEX 01 00:00:00
FILE "10 - Holtverseny.wav" WAVE
  TRACK 10 AUDIO
    TITLE "Holtverseny"
    PERFORMER "Hooligans"
    INDEX 01 00:00:00
FILE "11 - Igaz történet (feat. Péter Szabó Szilvia).wav" WAVE
  TRACK 11 AUDIO
    TITLE "Igaz történet (feat. Péter Szabó Szilvia)"
    PERFORMER "Hooligans"
    INDEX 01 00:00:00
FILE "12 - Tartson örökké (Lotfi Begi Remix).wav" WAVE
  TRACK 12 AUDIO
    TITLE "Tartson örökké (Lotfi Begi Remix)"
    PERFORMER "Hooligans"
    INDEX 01 00:00:00
Код:
[url=https://fastpic.ru/view/91/2018/1002/fa64bf541f220a62cf75a1b748e7a0b7.png.html][img]http://i91.fastpic.ru/thumb/2018/1002/b7/fa64bf541f220a62cf75a1b748e7a0b7.jpeg[/img][/url]
Basszusgitár: Késmárki Zsolt
Dobok: Kiss Endre
Gitár: Tóth Tibor
Billentyűs hangszerek: Dandó Zoltán
Ének: Ördög Tibor
Mandolin: Littvay Imre
Slide Guitar: Benkő Zsolt
Háttér vokálok: Mészáros Tamás, Óvári Éva, Péter Barbara
A 2016. június 7-én megjelent Hooligans album.
2016-ban jubileumot ünnepel a Hooligans, hazánk népszerű rock zenekara. Ennek alkalmából született az "Igaz történet" című korong. Az új dalokat a közös munka és a rengeteg élmény ihlette, de a vallomások mellett megmaradt a jellegzetes pörgős, néhol balladai Hooligans hangzás.
A lemezt a Tartson örökké című Hooligans sláger Lotfi Begi Remix vezette fel, majd május 19-én (bolondos apák napja / ivók napja) megjelent Apám című dal nagyon sok rádió játszási listájára is felkerült.
Az album harmadik kislemeze, a Seholország a Miss World Hungary 2016 gáláján élőben került bemutatásra.
Правила, инструкции, FAQ!!!
Торрент  Добавлен [26 мар 2019, 19:39] Скачать торрент Магнет ссылка
Скачать торрент
[ Размер 15.68 КБ / Просмотров 1 ]

Статус
Проверен 
 
Размер  354.97 МБ
Приватный: Нет (DHT включён)
.torrent скачан  0
 


     Отправить личное сообщение
   
Страница 1 из 1
Показать сообщения за:  Поле сортировки  
Начать новую тему Ответить на тему


Сейчас этот форум просматривают: нет зарегистрированных пользователей и гости: 0


Вы не можете начинать темы
Вы не можете отвечать на сообщения
Вы не можете редактировать свои сообщения
Вы не можете удалять свои сообщения
Вы не можете добавлять вложения

Перейти:  
cron