Начать новую тему Ответить на тему
Статистика раздачи
Размер: 305.01 МБ | Добавлен: 26 мар 2019, 19:39 | Скачали: 0
Сидеров: 1  [0 байт/сек]    Личеров: 0  [0 байт/сек]
Пред. тема | След. тема 

Автор
Сообщение

СообщениеДобавлено: 26 мар 2019, 19:39 

Ответить с цитатой 

Herbert Gronemeyer (Herbert Grönemeyer) / Sprunge
Жанр: Pop-Rock
Носитель: CD
Страна-производитель диска (релиза): W.Germany
Год издания: 1986
Издатель (лейбл): Electrola
Номер по каталогу: 568-7462362
Страна исполнителя (группы): Germany
Аудиокодек: FLAC (*.flac)
Тип рипа: tracks+.cue
Битрейт аудио: lossless
Продолжительность: 0:45:10.
Источник (релизер): clustert
Наличие сканов в содержимом раздачи: да
Треклист:
01. Kinder an die Macht [0:03:58.70]
02. Tanzen [0:06:36.10]
03. Mehr geht leider nicht [0:03:58.20]
04. Mass aller Dinge [0:04:34.10]
05. Nur noch so [0:03:46.23]
06. Unterwegs [0:05:05.05]
07. Lacheln [0:04:16.10]
08. Viel zu viel [0:04:13.15]
09. Einmal [0:04:40.25]
10. Angst [0:04:01.42]
Код:
Exact Audio Copy V1.0 beta 3 from 29. August 2011
Отчёт EAC об извлечении, выполненном 20. июля 2016, 14:55
Herbert Gronemeyer / Sprunge
Дисковод: ASUS    DRW-1814BLT   Adapter: 4  ID: 0
Режим чтения                 : Достоверность
Использование точного потока : Да
Отключение кэша аудио        : Да
Использование указателей C2  : Нет
Коррекция смещения при чтении                     : 6
Способность читать области Lead-in и Lead-out     : Нет
Заполнение пропущенных сэмплов тишиной            : Да
Удаление блоков с тишиной в начале и конце        : Нет
При вычислениях CRC использовались нулевые сэмплы : Да
Интерфейс                                         : Встроенный Win32-интерфейс для Win NT/2000
Обработка зазоров                                 : Добавлено к предыдущему треку
Выходной формат          : Пользовательский кодировщик
Выбранный битрейт        : 128 kBit/s
Качество                 : Высокий
Добавление ID3-тега      : Нет
Утилита сжатия           : C:\Program Files\Exact Audio Copy\Flac\flac.exe
Дополнительные параметры :  -V -8 -T "Genre=%genre%" -T "Artist=%artist%" -T "Title=%title%" -T "Album=%albumtitle%" -T "Date=%year%" -T "Tracknumber=%tracknr%" -T "Comment=EAC1.0b2 FLAC -8" %source%
TOC извлечённого CD
     Трек |   Старт  | Длительность | Начальный сектор | Конечный сектор
    ---------------------------------------------------------------------
       1  |  0:00.00 |    3:58.70   |           0      |      17919
       2  |  3:58.70 |    6:36.10   |       17920      |      47629
       3  | 10:35.05 |    3:58.20   |       47630      |      65499
       4  | 14:33.25 |    4:34.10   |       65500      |      86059
       5  | 19:07.35 |    3:46.23   |       86060      |     103032
       6  | 22:53.58 |    5:05.05   |      103033      |     125912
       7  | 27:58.63 |    4:16.10   |      125913      |     145122
       8  | 32:14.73 |    4:13.15   |      145123      |     164112
       9  | 36:28.13 |    4:40.25   |      164113      |     185137
      10  | 41:08.38 |    4:01.42   |      185138      |     203254
Трек  1
     Имя файла R:\Раздача 65\Herbert Gronemeyer - 1986 - Sprunge\01 Kinder an die Macht .wav
     Длина предзазора  0:00:02.00
     Пиковый уровень 100.0 %
     Скорость извлечения 5.0 X
     Качество трека 100.0 %
     CRC теста 83A1D185
     CRC копии 83A1D185
     Точное извлечение (достоверность 46)  [82CE7573]  (AR v2)
     Копирование... OK
Трек  2
     Имя файла R:\Раздача 65\Herbert Gronemeyer - 1986 - Sprunge\02 Tanzen .wav
     Длина предзазора  0:00:03.07
     Пиковый уровень 100.0 %
     Скорость извлечения 6.1 X
     Качество трека 100.0 %
     CRC теста 2B6B7B79
     CRC копии 2B6B7B79
     Точное извлечение (достоверность 47)  [7EC60DAA]  (AR v2)
     Копирование... OK
Трек  3
     Имя файла R:\Раздача 65\Herbert Gronemeyer - 1986 - Sprunge\03 Mehr geht leider nicht .wav
     Длина предзазора  0:00:03.15
     Пиковый уровень 84.6 %
     Скорость извлечения 6.3 X
     Качество трека 100.0 %
     CRC теста 190D7CE0
     CRC копии 190D7CE0
     Точное извлечение (достоверность 46)  [BF9CE392]  (AR v2)
     Копирование... OK
Трек  4
     Имя файла R:\Раздача 65\Herbert Gronemeyer - 1986 - Sprunge\04 Mass aller Dinge .wav
     Длина предзазора  0:00:01.07
     Пиковый уровень 100.0 %
     Скорость извлечения 6.9 X
     Качество трека 100.0 %
     CRC теста 706E2555
     CRC копии 706E2555
     Точное извлечение (достоверность 47)  [BAEE21B8]  (AR v2)
     Копирование... OK
Трек  5
     Имя файла R:\Раздача 65\Herbert Gronemeyer - 1986 - Sprunge\05 Nur noch so .wav
     Длина предзазора  0:00:02.35
     Пиковый уровень 100.0 %
     Скорость извлечения 7.1 X
     Качество трека 100.0 %
     CRC теста A21BB9DF
     CRC копии A21BB9DF
     Точное извлечение (достоверность 46)  [AC4ECC05]  (AR v2)
     Копирование... OK
Трек  6
     Имя файла R:\Раздача 65\Herbert Gronemeyer - 1986 - Sprunge\06 Unterwegs .wav
     Длина предзазора  0:00:04.50
     Пиковый уровень 90.9 %
     Скорость извлечения 7.8 X
     Качество трека 100.0 %
     CRC теста 414ECC96
     CRC копии 414ECC96
     Точное извлечение (достоверность 46)  [97E33924]  (AR v2)
     Копирование... OK
Трек  7
     Имя файла R:\Раздача 65\Herbert Gronemeyer - 1986 - Sprunge\07 Lacheln .wav
     Длина предзазора  0:00:02.50
     Пиковый уровень 100.0 %
     Скорость извлечения 8.0 X
     Качество трека 100.0 %
     CRC теста BC8AA4D5
     CRC копии BC8AA4D5
     Точное извлечение (достоверность 47)  [AEB047F4]  (AR v2)
     Копирование... OK
Трек  8
     Имя файла R:\Раздача 65\Herbert Gronemeyer - 1986 - Sprunge\08 Viel zu viel .wav
     Длина предзазора  0:00:02.18
     Пиковый уровень 100.0 %
     Скорость извлечения 8.3 X
     Качество трека 100.0 %
     CRC теста E5FF1555
     CRC копии E5FF1555
     Точное извлечение (достоверность 47)  [8C309455]  (AR v2)
     Копирование... OK
Трек  9
     Имя файла R:\Раздача 65\Herbert Gronemeyer - 1986 - Sprunge\09 Einmal .wav
     Длина предзазора  0:00:00.15
     Пиковый уровень 100.0 %
     Скорость извлечения 8.8 X
     Качество трека 100.0 %
     CRC теста C30F059D
     CRC копии C30F059D
     Точное извлечение (достоверность 47)  [B3DF02FA]  (AR v2)
     Копирование... OK
Трек 10
     Имя файла R:\Раздача 65\Herbert Gronemeyer - 1986 - Sprunge\10 Angst .wav
     Длина предзазора  0:00:03.68
     Пиковый уровень 100.0 %
     Скорость извлечения 8.9 X
     Качество трека 100.0 %
     CRC теста AFE495FD
     CRC копии AFE495FD
     Точное извлечение (достоверность 47)  [6E23D847]  (AR v2)
     Копирование... OK
Все треки извлечены точно
Ошибок не произошло
Конец отчёта
==== Контрольная сумма отчёта 12559BA11D0E1AB3E2B9C9A5495222C8E1F2D143ECFDCBA4073CCB90A868E642 ====
Код:
REM GENRE Pop-Rock
REM DATE 1986
REM DISCID 860A960A
REM COMMENT "ExactAudioCopy v1.0b3"
PERFORMER "Herbert Gronemeyer"
TITLE "Sprunge"
FILE "01 Kinder an die Macht .wav" WAVE
  TRACK 01 AUDIO
    TITLE "Kinder an die Macht"
    PERFORMER "Herbert Gronemeyer"
    INDEX 01 00:00:00
  TRACK 02 AUDIO
    TITLE "Tanzen"
    PERFORMER "Herbert Gronemeyer"
    INDEX 00 03:55:63
FILE "02 Tanzen .wav" WAVE
    INDEX 01 00:00:00
  TRACK 03 AUDIO
    TITLE "Mehr geht leider nicht"
    PERFORMER "Herbert Gronemeyer"
    INDEX 00 06:32:70
FILE "03 Mehr geht leider nicht .wav" WAVE
    INDEX 01 00:00:00
  TRACK 04 AUDIO
    TITLE "Mass aller Dinge"
    PERFORMER "Herbert Gronemeyer"
    INDEX 00 03:57:13
FILE "04 Mass aller Dinge .wav" WAVE
    INDEX 01 00:00:00
  TRACK 05 AUDIO
    TITLE "Nur noch so"
    PERFORMER "Herbert Gronemeyer"
    INDEX 00 04:31:50
FILE "05 Nur noch so .wav" WAVE
    INDEX 01 00:00:00
  TRACK 06 AUDIO
    TITLE "Unterwegs"
    PERFORMER "Herbert Gronemeyer"
    INDEX 00 03:41:48
FILE "06 Unterwegs .wav" WAVE
    INDEX 01 00:00:00
  TRACK 07 AUDIO
    TITLE "Lacheln"
    PERFORMER "Herbert Gronemeyer"
    INDEX 00 05:02:30
FILE "07 Lacheln .wav" WAVE
    INDEX 01 00:00:00
  TRACK 08 AUDIO
    TITLE "Viel zu viel"
    PERFORMER "Herbert Gronemeyer"
    INDEX 00 04:13:67
FILE "08 Viel zu viel .wav" WAVE
    INDEX 01 00:00:00
  TRACK 09 AUDIO
    TITLE "Einmal"
    PERFORMER "Herbert Gronemeyer"
    INDEX 00 04:13:00
FILE "09 Einmal .wav" WAVE
    INDEX 01 00:00:00
  TRACK 10 AUDIO
    TITLE "Angst"
    PERFORMER "Herbert Gronemeyer"
    INDEX 00 04:36:32
FILE "10 Angst .wav" WAVE
    INDEX 01 00:00:00
Правила, инструкции, FAQ!!!
Торрент  Добавлен [26 мар 2019, 19:39] Скачать торрент Магнет ссылка
Скачать торрент
[ Размер 13.9 КБ / Просмотров 13 ]

Статус
Проверен 
 
Размер  305.01 МБ
Приватный: Нет (DHT включён)
.torrent скачан  0
 


     Отправить личное сообщение
   
Страница 1 из 1
Показать сообщения за:  Поле сортировки  
Начать новую тему Ответить на тему


Сейчас этот форум просматривают: нет зарегистрированных пользователей и гости: 0


Вы не можете начинать темы
Вы не можете отвечать на сообщения
Вы не можете редактировать свои сообщения
Вы не можете удалять свои сообщения
Вы не можете добавлять вложения

Перейти:  
cron