Начать новую тему Ответить на тему
Статистика раздачи
Размер: 272.46 МБ | Добавлен: 26 мар 2019, 19:35 | Скачали: 0
Сидеров: 0  [0 байт/сек]    Личеров: 0  [0 байт/сек]
Пред. тема | След. тема 

Автор
Сообщение

СообщениеДобавлено: 26 мар 2019, 19:35 

Ответить с цитатой 


Heather Morgan

Borrowed Heart





• Жанр: Pop-Rock
• Носитель: WEB
• Год издания: 2018
• Издатель: Eleven Feathers Records
• Страна: USA
• Аудиокодек: FLAC (*.flac)
• Тип рипа: tracks
• Продолжительность: 00:44:07
• Источник (спасибо): NBMus
• WEB релиз: 7digital
• Наличие сканов: front

01 - We Were A Fire (00:03:57)
02 - Arms Of A Lion (00:04:00)
03 - Your Hurricane (00:03:23)
04 - Morning Light (00:03:07)
05 - Highway Robbery (00:03:44)
06 - Fall Like Rain (00:03:47)
07 - A Hundred Miles (00:04:00)
08 - Still Think About You (00:03:49)
09 - Paper (00:03:45)
10 - Speckled Bird (00:03:15)
11 - I Always Did (00:03:50)
12 - Borrowed Heart (00:03:25)



Код:
foobar2000 1.3.9 / Замер динамического диапазона (DR) 1.1.1
Дата отчёта:  2018-10-08 12:00:12
--------------------------------------------------------------------------------
Анализ:   Heather Morgan/Lori McKenna / Borrowed Heart (1)
          Heather Morgan/Ross Copperman / Borrowed Heart (2)
          Heather Morgan / Borrowed Heart (3-12)
--------------------------------------------------------------------------------
DR         Пики         RMS           Продолжительность трека
--------------------------------------------------------------------------------
DR6       -0.30 дБ    -8.74 дБ      4:01 02-Arms of a Lion
DR6       -0.33 дБ    -9.99 дБ      3:50 11-I Always Did
DR6       -0.04 дБ    -9.13 дБ      3:58 01-We Were a Fire
DR6        0.00 дБ    -8.57 дБ      3:23 03-Your Hurricane
DR6        0.00 дБ    -8.07 дБ      3:08 04-Morning Light
DR6        0.00 дБ    -7.09 дБ      3:45 05-Highway Robbery
DR6        0.00 дБ    -8.29 дБ      3:47 06-Fall Like Rain
DR5       -0.34 дБ    -7.73 дБ      4:00 07-A Hundred Miles
DR6       -0.23 дБ    -8.65 дБ      3:49 08-Still Think About You
DR8       -0.36 дБ   -11.30 дБ      3:46 09-Paper
DR6        0.00 дБ    -7.33 дБ      3:16 10-Speckled Bird
DR7        0.00 дБ    -9.57 дБ      3:25 12-Borrowed Heart
--------------------------------------------------------------------------------
Количество треков: 12
Реальные значения DR: DR6
Частота:   44100 Гц
Каналов:   2
Разрядность:   16
Битрейт:   871 кбит/с
Кодек:   FLAC
================================================================================

Код:
-----------------------
DON'T MODIFY THIS FILE
-----------------------
PERFORMER: auCDtect Task Manager, ver. 1.5.1RC3 build 1.5.1.4
Copyright (c) 2008-2010 y-soft. All rights reserved
[url=http://y-soft.org]http://y-soft.org[/url]
ANALYZER: auCDtect: CD records authenticity detector, version 0.8.2
Copyright (c) 2004 Oleg Berngardt. All rights reserved.
Copyright (c) 2004 Alexander Djourik. All rights reserved.
FILE: 12 - Borrowed Heart.flac
  Size: 22561698 Hash: 5F311D2C924C489F26E0F77378991126 Accuracy: -m0
  Conclusion: CDDA 100%
  Signature: 7CFC8E76AE2E065B9CC165632C0DFEE8F3B13168
FILE: 11 - I Always Did.flac
  Size: 22796969 Hash: 7E41F87F7090D444C58FC2FF2E6B121F Accuracy: -m0
  Conclusion: CDDA 100%
  Signature: 30D706B375DF25F51ACB283E5A438EC11536BECD
FILE: 10 - Speckled Bird.flac
  Size: 24588286 Hash: 5C0437A3D8A4A46FA64395D9A0918203 Accuracy: -m0
  Conclusion: CDDA 100%
  Signature: B3DD9B8CED118D067C1A00F7F86CF416611EEACB
FILE: 09 - Paper.flac
  Size: 20561977 Hash: 88FBC721E29C82A7DAA7305928757EF8 Accuracy: -m0
  Conclusion: CDDA 100%
  Signature: 220EDBBC9B996AE9C4A7884F6CF7236A1019DF83
FILE: 08 - Still Think About You.flac
  Size: 24872230 Hash: 011C9985CF037F155018D1D8F8B7B0D0 Accuracy: -m0
  Conclusion: CDDA 100%
  Signature: 78D0C5F97259E297943A1929C90B2F4B4271ACCE
FILE: 07 - A Hundred Miles.flac
  Size: 23736697 Hash: 1C7461E11BB3E781C3D98DF4752B4CE7 Accuracy: -m0
  Conclusion: CDDA 100%
  Signature: 0E1A1A31647B100466B60B242BAFEB6E95F6ECAB
FILE: 06 - Fall Like Rain.flac
  Size: 25272943 Hash: FC6908CD42B8971AC7FA9BDD1A2292E8 Accuracy: -m0
  Conclusion: CDDA 100%
  Signature: 483D6BFBD74D316A4BD44D94B1FFA636257A1585
FILE: 05 - Highway Robbery.flac
  Size: 25403527 Hash: 7E576686A61050ED33C8076E1686F2C2 Accuracy: -m0
  Conclusion: CDDA 100%
  Signature: CC92B3801469A70D5592C75C1BBA425DA0F209B5
FILE: 04 - Morning Light.flac
  Size: 21344276 Hash: A8E9E43BF2A674932BB2F1690559EE85 Accuracy: -m0
  Conclusion: CDDA 100%
  Signature: 653B85C4A098A6DF2549448A80F695745B5D4320
FILE: 03 - Your Hurricane.flac
  Size: 22826968 Hash: A50966EE167B5EA76D002E64749955F3 Accuracy: -m0
  Conclusion: CDDA 100%
  Signature: 21EF3CE5CEC259DA0F5330EEE699632F4FE658BE
FILE: 02 - Arms Of A Lion.flac
  Size: 25175573 Hash: 9221633B2370D9A951FDC2C78AC943D1 Accuracy: -m0
  Conclusion: CDDA 100%
  Signature: C0E43ACB4D553DD106F86CF030C3479E1E177022
FILE: 01 - We Were A Fire.flac
  Size: 26384993 Hash: 685F9D68888D477F4D46CBC3E984B67A Accuracy: -m0
  Conclusion: CDDA 100%
  Signature: CD9431C5245C66D4CB892C9FF55C4479C63895FE

Правила, инструкции, FAQ!!!
Торрент  Добавлен [26 мар 2019, 19:35] Скачать торрент Магнет ссылка
Скачать торрент
[ Размер 11.77 КБ / Просмотров 1 ]

Статус
Проверен 
 
Размер  272.46 МБ
Приватный: Нет (DHT включён)
.torrent скачан  0
 


     Отправить личное сообщение
   
Страница 1 из 1
Показать сообщения за:  Поле сортировки  
Начать новую тему Ответить на тему


Сейчас этот форум просматривают: нет зарегистрированных пользователей и гости: 0


Вы не можете начинать темы
Вы не можете отвечать на сообщения
Вы не можете редактировать свои сообщения
Вы не можете удалять свои сообщения
Вы не можете добавлять вложения

Перейти:  
cron