Начать новую тему Ответить на тему
Статистика раздачи
Размер: 252.84 МБ | Добавлен: 26 мар 2019, 19:43 | Скачали: 0
Сидеров: 0  [0 байт/сек]    Личеров: 0  [0 байт/сек]
Пред. тема | След. тема 

Автор
Сообщение

СообщениеДобавлено: 26 мар 2019, 19:43 

Ответить с цитатой 

Greyhounds / Accumulator
Жанр: Pop, Rock
Носитель: CD
Год издания: 2014
Издатель (лейбл): Ardent Music ‎
Номер по каталогу: ARD8546
Страна исполнителя (группы): US
Аудиокодек: FLAC (*.flac)
Тип рипа: tracks+.cue
Битрейт аудио: lossless
Продолжительность: 00:39:42
Источник (релизер): локальная сеть
Наличие сканов в содержимом раздачи: нет
Треклист:
1 What's On Your Mind
2 Get Back
3 Lone Rider
4 Soul Navigator
5 Yours To Steal
6 You're Gone
7 All Over But The Shoutin'
8 I Remember
9 Yeah Yeah Yeah
10 Amazing
11 Troubled Days
Код:
X Lossless Decoder version 20131102 (145.0)
XLD extraction logfile from 2014-04-24 18:36:25 -0400
The Greyhounds / Accumulator
Used drive : HL-DT-ST DVDRW  GS31N (revision TA17)
Media type : Pressed CD
Ripper mode             : XLD Secure Ripper
Disable audio cache     : OK for the drive with a cache less than 1375KiB
Make use of C2 pointers : NO
Read offset correction  : 667
Max retry count         : 20
Gap status              : Analyzed, Appended (except HTOA)
TOC of the extracted CD
     Track |   Start  |  Length  | Start sector | End sector
    ---------------------------------------------------------
        1  | 00:00:00 | 04:00:47 |         0    |    18046
        2  | 04:00:47 | 02:58:70 |     18047    |    31466
        3  | 06:59:42 | 02:35:39 |     31467    |    43130
        4  | 09:35:06 | 04:13:01 |     43131    |    62106
        5  | 13:48:07 | 04:08:53 |     62107    |    80759
        6  | 17:56:60 | 04:39:03 |     80760    |   101687
        7  | 22:35:63 | 02:58:07 |    101688    |   115044
        8  | 25:33:70 | 03:36:62 |    115045    |   131306
        9  | 29:10:57 | 03:32:38 |    131307    |   147244
       10  | 32:43:20 | 03:11:51 |    147245    |   161620
       11  | 35:54:71 | 03:47:73 |    161621    |   178718
AccurateRip Summary
    Disc not found in AccurateRip DB.
All Tracks
    Album gain               : -8.61 dB
    Peak                     : 0.988770
    Statistics
        Read error                           : 0
        Jitter error (maybe fixed)           : 0
        Retry sector count                   : 0
        Damaged sector count                 : 0
Track 01
    Filename : /Volumes/Data/CD Rips/The Greyhounds - Accumulator (2014) [FLAC]/01 What_s On Your Mind.flac
    Pre-gap length : 00:02:00
    Track gain               : -8.94 dB
    Peak                     : 0.980225
    CRC32 hash (test run)    : 8B12153B
    CRC32 hash               : 8B12153B
    CRC32 hash (skip zero)   : 68A00015
    AccurateRip v1 signature : 683A6E4C
    AccurateRip v2 signature : 586BA9FE
        ->Track not present in AccurateRip database.
    Statistics
        Read error                           : 0
        Jitter error (maybe fixed)           : 0
        Retry sector count                   : 0
        Damaged sector count                 : 0
Track 02
    Filename : /Volumes/Data/CD Rips/The Greyhounds - Accumulator (2014) [FLAC]/02 Get Back.flac
    Track gain               : -9.11 dB
    Peak                     : 0.988556
    CRC32 hash (test run)    : 385B5E3A
    CRC32 hash               : 385B5E3A
    CRC32 hash (skip zero)   : 4DA359C7
    AccurateRip v1 signature : B730BB87
    AccurateRip v2 signature : 4F72326F
        ->Track not present in AccurateRip database.
    Statistics
        Read error                           : 0
        Jitter error (maybe fixed)           : 0
        Retry sector count                   : 0
        Damaged sector count                 : 0
Track 03
    Filename : /Volumes/Data/CD Rips/The Greyhounds - Accumulator (2014) [FLAC]/03 Lone Rider.flac
    Track gain               : -9.52 dB
    Peak                     : 0.980927
    CRC32 hash (test run)    : C7B62554
    CRC32 hash               : C7B62554
    CRC32 hash (skip zero)   : 1B1330EE
    AccurateRip v1 signature : 3520C4EB
    AccurateRip v2 signature : 2C0CEF92
        ->Track not present in AccurateRip database.
    Statistics
        Read error                           : 0
        Jitter error (maybe fixed)           : 0
        Retry sector count                   : 0
        Damaged sector count                 : 0
Track 04
    Filename : /Volumes/Data/CD Rips/The Greyhounds - Accumulator (2014) [FLAC]/04 Soul Navigator.flac
    Track gain               : -8.04 dB
    Peak                     : 0.988617
    CRC32 hash (test run)    : 45719430
    CRC32 hash               : 45719430
    CRC32 hash (skip zero)   : 8590B74A
    AccurateRip v1 signature : AF4C9E80
    AccurateRip v2 signature : 6C98A39C
        ->Track not present in AccurateRip database.
    Statistics
        Read error                           : 0
        Jitter error (maybe fixed)           : 0
        Retry sector count                   : 0
        Damaged sector count                 : 0
Track 05
    Filename : /Volumes/Data/CD Rips/The Greyhounds - Accumulator (2014) [FLAC]/05 Yours to Steal.flac
    Track gain               : -8.22 dB
    Peak                     : 0.988708
    CRC32 hash (test run)    : F51D6EAF
    CRC32 hash               : F51D6EAF
    CRC32 hash (skip zero)   : 9551D2B6
    AccurateRip v1 signature : 3BB63A19
    AccurateRip v2 signature : 533A42AE
        ->Track not present in AccurateRip database.
    Statistics
        Read error                           : 0
        Jitter error (maybe fixed)           : 0
        Retry sector count                   : 0
        Damaged sector count                 : 0
Track 06
    Filename : /Volumes/Data/CD Rips/The Greyhounds - Accumulator (2014) [FLAC]/06 You_re Gone.flac
    Track gain               : -7.23 dB
    Peak                     : 0.988617
    CRC32 hash (test run)    : E29FF220
    CRC32 hash               : E29FF220
    CRC32 hash (skip zero)   : 36370CDF
    AccurateRip v1 signature : 9DEB45B3
    AccurateRip v2 signature : D8CAA688
        ->Track not present in AccurateRip database.
    Statistics
        Read error                           : 0
        Jitter error (maybe fixed)           : 0
        Retry sector count                   : 0
        Damaged sector count                 : 0
Track 07
    Filename : /Volumes/Data/CD Rips/The Greyhounds - Accumulator (2014) [FLAC]/07 All Over But The Shoutin_.flac
    Track gain               : -7.32 dB
    Peak                     : 0.988251
    CRC32 hash (test run)    : B0552223
    CRC32 hash               : B0552223
    CRC32 hash (skip zero)   : ABE0531E
    AccurateRip v1 signature : DB9EB232
    AccurateRip v2 signature : 621EC447
        ->Track not present in AccurateRip database.
    Statistics
        Read error                           : 0
        Jitter error (maybe fixed)           : 0
        Retry sector count                   : 0
        Damaged sector count                 : 0
Track 08
    Filename : /Volumes/Data/CD Rips/The Greyhounds - Accumulator (2014) [FLAC]/08 I Remember.flac
    Track gain               : -9.78 dB
    Peak                     : 0.988586
    CRC32 hash (test run)    : 48744667
    CRC32 hash               : 48744667
    CRC32 hash (skip zero)   : E4657570
    AccurateRip v1 signature : 0C61A957
    AccurateRip v2 signature : F123FCF1
        ->Track not present in AccurateRip database.
    Statistics
        Read error                           : 0
        Jitter error (maybe fixed)           : 0
        Retry sector count                   : 0
        Damaged sector count                 : 0
Track 09
    Filename : /Volumes/Data/CD Rips/The Greyhounds - Accumulator (2014) [FLAC]/09 Yeah Yeah Yeah.flac
    Track gain               : -7.75 dB
    Peak                     : 0.988770
    CRC32 hash (test run)    : 73E89D46
    CRC32 hash               : 73E89D46
    CRC32 hash (skip zero)   : A8701C1E
    AccurateRip v1 signature : 6E87DC38
    AccurateRip v2 signature : 3D9B4D7D
        ->Track not present in AccurateRip database.
    Statistics
        Read error                           : 0
        Jitter error (maybe fixed)           : 0
        Retry sector count                   : 0
        Damaged sector count                 : 0
Track 10
    Filename : /Volumes/Data/CD Rips/The Greyhounds - Accumulator (2014) [FLAC]/10 Amazing.flac
    Track gain               : -9.17 dB
    Peak                     : 0.831543
    CRC32 hash (test run)    : BC114CDA
    CRC32 hash               : BC114CDA
    CRC32 hash (skip zero)   : 90056673
    AccurateRip v1 signature : 3AD6D110
    AccurateRip v2 signature : 75F821AA
        ->Track not present in AccurateRip database.
    Statistics
        Read error                           : 0
        Jitter error (maybe fixed)           : 0
        Retry sector count                   : 0
        Damaged sector count                 : 0
Track 11
    Filename : /Volumes/Data/CD Rips/The Greyhounds - Accumulator (2014) [FLAC]/11 Troubled Days.flac
    Track gain               : -6.67 dB
    Peak                     : 0.934540
    CRC32 hash (test run)    : 023E92DB
    CRC32 hash               : 023E92DB
    CRC32 hash (skip zero)   : FF4518A0
    AccurateRip v1 signature : B1EFC42C
    AccurateRip v2 signature : 1CB534E6
        ->Track not present in AccurateRip database.
    Statistics
        Read error                           : 0
        Jitter error (maybe fixed)           : 0
        Retry sector count                   : 0
        Damaged sector count                 : 0
No errors occurred
End of status report
-----BEGIN XLD SIGNATURE-----
qNpvNp01IN7rPGdG2fhWrOzVhA_IjGv935DjFsg3wp3UoPhv8k.5mA5iYSVS1HrEyDLQ.GYRB5pQ6n0cPhATe7mn.tjCRKcX_jInXuG
-----END XLD SIGNATURE-----
Код:
TITLE "Accumulator"
PERFORMER "The Greyhounds"
REM DATE "2014"
REM DISCID 8F094E0B
REM REPLAYGAIN_ALBUM_GAIN -8.61 dB
REM REPLAYGAIN_ALBUM_PEAK 0.988770
FILE "01 What_s On Your Mind.flac" WAVE
  TRACK 01 AUDIO
    TITLE "What's On Your Mind"
    ISRC USAR31301381
    REM REPLAYGAIN_TRACK_GAIN -8.94 dB
    REM REPLAYGAIN_TRACK_PEAK 0.980225
    INDEX 01 00:00:00
FILE "02 Get Back.flac" WAVE
  TRACK 02 AUDIO
    TITLE "Get Back"
    ISRC USAR31301382
    REM REPLAYGAIN_TRACK_GAIN -9.11 dB
    REM REPLAYGAIN_TRACK_PEAK 0.988556
    INDEX 01 00:00:00
FILE "03 Lone Rider.flac" WAVE
  TRACK 03 AUDIO
    TITLE "Lone Rider"
    ISRC USAR31301383
    REM REPLAYGAIN_TRACK_GAIN -9.52 dB
    REM REPLAYGAIN_TRACK_PEAK 0.980927
    INDEX 01 00:00:00
FILE "04 Soul Navigator.flac" WAVE
  TRACK 04 AUDIO
    TITLE "Soul Navigator"
    ISRC USAR31301384
    REM REPLAYGAIN_TRACK_GAIN -8.04 dB
    REM REPLAYGAIN_TRACK_PEAK 0.988617
    INDEX 01 00:00:00
FILE "05 Yours to Steal.flac" WAVE
  TRACK 05 AUDIO
    TITLE "Yours to Steal"
    ISRC USAR31301385
    REM REPLAYGAIN_TRACK_GAIN -8.22 dB
    REM REPLAYGAIN_TRACK_PEAK 0.988708
    INDEX 01 00:00:00
FILE "06 You_re Gone.flac" WAVE
  TRACK 06 AUDIO
    TITLE "You're Gone"
    ISRC USAR31301386
    REM REPLAYGAIN_TRACK_GAIN -7.23 dB
    REM REPLAYGAIN_TRACK_PEAK 0.988617
    INDEX 01 00:00:00
FILE "07 All Over But The Shoutin_.flac" WAVE
  TRACK 07 AUDIO
    TITLE "All Over But The Shoutin'"
    ISRC USAR31301387
    REM REPLAYGAIN_TRACK_GAIN -7.32 dB
    REM REPLAYGAIN_TRACK_PEAK 0.988251
    INDEX 01 00:00:00
FILE "08 I Remember.flac" WAVE
  TRACK 08 AUDIO
    TITLE "I Remember"
    ISRC USAR31301388
    REM REPLAYGAIN_TRACK_GAIN -9.78 dB
    REM REPLAYGAIN_TRACK_PEAK 0.988586
    INDEX 01 00:00:00
FILE "09 Yeah Yeah Yeah.flac" WAVE
  TRACK 09 AUDIO
    TITLE "Yeah Yeah Yeah"
    ISRC USAR31301389
    REM REPLAYGAIN_TRACK_GAIN -7.75 dB
    REM REPLAYGAIN_TRACK_PEAK 0.988770
    INDEX 01 00:00:00
FILE "10 Amazing.flac" WAVE
  TRACK 10 AUDIO
    TITLE "Amazing"
    ISRC USAR31301390
    REM REPLAYGAIN_TRACK_GAIN -9.17 dB
    REM REPLAYGAIN_TRACK_PEAK 0.831543
    INDEX 01 00:00:00
FILE "11 Troubled Days.flac" WAVE
  TRACK 11 AUDIO
    TITLE "Troubled Days"
    ISRC USAR31301391
    REM REPLAYGAIN_TRACK_GAIN -6.67 dB
    REM REPLAYGAIN_TRACK_PEAK 0.934540
    INDEX 01 00:00:00
Код:
AUDIOCHECKER v2.0 beta (build 457) - by Dester - opdester@freemail.hu
~~~~~~~~~~~~~~~~~~~~~~~~~~~~~~~~~~
-=== DO NOT EDIT THIS FILE! ===-
Path: ...\Greyhounds - Accumulator (2014) FLAC
01 -=- 01 What_s On Your Mind.flac -=- CDDA (100%)
02 -=- 02 Get Back.flac -=- CDDA (100%)
03 -=- 03 Lone Rider.flac -=- CDDA (100%)
04 -=- 04 Soul Navigator.flac -=- CDDA (100%)
05 -=- 05 Yours to Steal.flac -=- CDDA (100%)
06 -=- 06 You_re Gone.flac -=- CDDA (100%)
07 -=- 07 All Over But The Shoutin_.flac -=- CDDA (100%)
08 -=- 08 I Remember.flac -=- CDDA (100%)
09 -=- 09 Yeah Yeah Yeah.flac -=- CDDA (100%)
10 -=- 10 Amazing.flac -=- CDDA (99%)
11 -=- 11 Troubled Days.flac -=- CDDA (100%)
Summary 99,91% CDDA
182054740
Правила, инструкции, FAQ!!!
Торрент  Добавлен [26 мар 2019, 19:43] Скачать торрент Магнет ссылка
Скачать торрент
[ Размер 20.93 КБ / Просмотров 4 ]

Статус
Проверен 
 
Размер  252.84 МБ
Приватный: Нет (DHT включён)
.torrent скачан  0
 


     Отправить личное сообщение
   
Страница 1 из 1
Показать сообщения за:  Поле сортировки  
Начать новую тему Ответить на тему


Сейчас этот форум просматривают: нет зарегистрированных пользователей и гости: 0


Вы не можете начинать темы
Вы не можете отвечать на сообщения
Вы не можете редактировать свои сообщения
Вы не можете удалять свои сообщения
Вы не можете добавлять вложения

Перейти:  
cron