Начать новую тему Ответить на тему
Статистика раздачи
Размер: 332.48 МБ | Добавлен: 26 мар 2019, 20:25 | Скачали: 0
Сидеров: 0  [0 байт/сек]    Личеров: 0  [0 байт/сек]
Пред. тема | След. тема 

Автор
Сообщение

СообщениеДобавлено: 26 мар 2019, 20:25 

Ответить с цитатой 

La Grande Sophie ‎– Le Porte-Bonheur

Жанр: Pop-Rock
Страна: France
Страна базирования группы: France
Год издания диска: 2001
Издатель (лейбл): Epic
Номер по каталогу: 501874 2
Аудиокодек: FLAC (*.flac)
Тип рипа: tracks
Битрейт аудио: lossless
Продолжительность: 00:51:17
Источник (релизер): вата
Наличие сканов в содержимом раздачи: Нет
Треклист:
1. Martin (2:55)
2. T'Es Comment? (3:20)
3. La Vie, Le Temps, L'Amour (3:14)
4. Le Porte-Bonheur (3:40)
5. Sa Petite Volonte (3:54)
6. Comme Tu Respires (2:29)
7. L'Amour Ca Pardonne Pas (4:06)
8. Des Choses Qui Arrivent A Tout L'Monde (3:50)
9. Cheri (3:07)
10. Une Exception (4:03)
11. Ou Que Tu Ailles (2:45)
12. Mon Docteur (3:27)
13. Des Roses Rouges (4:22)
14. These Boots Are Made For Walking (2:42)
15. Bye Bye (3:05)
In 2000, nearly ten years after her official début, La Grande Sophie scored a deal with a major record label, signing to Sony Music France. A few months later, she went into the ICP studios in Brussels to begin work on her second album, “Le Porte-bonheur.” The album, produced by Phil Délire (famous for his work with the likes of Noir Désir and Bashung) was released on 13 March 2001. Boosted by the success of the single "Martin" (still a cult song in La Grande Sophie’s repertoire) went on to sell 30,000 copies.

Код:
Exact Audio Copy V0.99 prebeta 4 from 23. January 2008
EAC extraction logfile from 9. November 2009, 16:14
La Grande Sophie / Le Porte-Bonheur
Used drive  : PIONEER DVD-RW  DVR-109   Adapter: 0  ID: 0
Read mode               : Secure
Utilize accurate stream : Yes
Defeat audio cache      : Yes
Make use of C2 pointers : No
Read offset correction                      : 48
Overread into Lead-In and Lead-Out          : No
Fill up missing offset samples with silence : Yes
Delete leading and trailing silent blocks   : No
Null samples used in CRC calculations       : Yes
Used interface                              : Native Win32 interface for Win NT & 2000
Gap handling                                : Appended to previous track
Used output format              : User Defined Encoder
Selected bitrate                : 1024 kBit/s
Quality                         : High
Add ID3 tag                     : No
Command line compressor         : C:\Program Files\FLAC\flac.exe
Additional command line options : -V -8 -T "artist=%a" -T "title=%t" -T "album=%g" -T "date=%y" -T "tracknumber=%n" -T "genre=%m" %s
TOC of the extracted CD
     Track |   Start  |  Length  | Start sector | End sector
    ---------------------------------------------------------
        1  |  0:00.00 |  2:55.20 |         0    |    13144
        2  |  2:55.20 |  3:21.27 |     13145    |    28246
        3  |  6:16.47 |  3:14.70 |     28247    |    42866
        4  |  9:31.42 |  3:41.55 |     42867    |    59496
        5  | 13:13.22 |  3:54.53 |     59497    |    77099
        6  | 17:08.00 |  2:29.15 |     77100    |    88289
        7  | 19:37.15 |  4:06.52 |     88290    |   106791
        8  | 23:43.67 |  3:51.03 |    106792    |   124119
        9  | 27:34.70 |  3:08.55 |    124120    |   138274
       10  | 30:43.50 |  4:05.12 |    138275    |   156661
       11  | 34:48.62 |  2:46.53 |    156662    |   169164
       12  | 37:35.40 |  3:28.30 |    169165    |   184794
       13  | 41:03.70 |  4:24.47 |    184795    |   204641
       14  | 45:28.42 |  2:42.38 |    204642    |   216829
       15  | 48:11.05 |  3:06.02 |    216830    |   230781
Track  1
     Filename F:\Torrent\FLAC\La Grande Sophie\Le Porte-Bonheur\01 - Martin.wav
     Pre-gap length  0:00:02.00
     Peak level 100.0 %
     Track quality 100.0 %
     Test CRC E2B09182
     Copy CRC E2B09182
     Copy OK
Track  2
     Filename F:\Torrent\FLAC\La Grande Sophie\Le Porte-Bonheur\02 - T'es Comment  .wav
     Peak level 100.0 %
     Track quality 100.0 %
     Test CRC CC40B207
     Copy CRC CC40B207
     Copy OK
Track  3
     Filename F:\Torrent\FLAC\La Grande Sophie\Le Porte-Bonheur\03 - La vie, le temps, l'amour.wav
     Pre-gap length  0:00:00.22
     Peak level 100.0 %
     Track quality 99.9 %
     Test CRC D0963FAE
     Copy CRC D0963FAE
     Copy OK
Track  4
     Filename F:\Torrent\FLAC\La Grande Sophie\Le Porte-Bonheur\04 - Le porte-bonheur.wav
     Pre-gap length  0:00:01.13
     Peak level 100.0 %
     Track quality 100.0 %
     Test CRC 8844705D
     Copy CRC 8844705D
     Copy OK
Track  5
     Filename F:\Torrent\FLAC\La Grande Sophie\Le Porte-Bonheur\05 - Sa petite volontй.wav
     Pre-gap length  0:00:01.53
     Peak level 100.0 %
     Track quality 100.0 %
     Test CRC B7E2647E
     Copy CRC B7E2647E
     Copy OK
Track  6
     Filename F:\Torrent\FLAC\La Grande Sophie\Le Porte-Bonheur\06 - Comme tu respires.wav
     Pre-gap length  0:00:00.30
     Peak level 100.0 %
     Track quality 100.0 %
     Test CRC C709C2E5
     Copy CRC C709C2E5
     Copy OK
Track  7
     Filename F:\Torrent\FLAC\La Grande Sophie\Le Porte-Bonheur\07 - L'amour зa pardonne pas.wav
     Peak level 100.0 %
     Track quality 99.9 %
     Test CRC DC9032B2
     Copy CRC DC9032B2
     Copy OK
Track  8
     Filename F:\Torrent\FLAC\La Grande Sophie\Le Porte-Bonheur\08 - Des choses qui arrivent а tout l'monde.wav
     Peak level 100.0 %
     Track quality 100.0 %
     Test CRC 8F17230B
     Copy CRC 8F17230B
     Copy OK
Track  9
     Filename F:\Torrent\FLAC\La Grande Sophie\Le Porte-Bonheur\09 - Chйri.wav
     Pre-gap length  0:00:00.04
     Peak level 100.0 %
     Track quality 100.0 %
     Test CRC 1DFC6D52
     Copy CRC 1DFC6D52
     Copy OK
Track 10
     Filename F:\Torrent\FLAC\La Grande Sophie\Le Porte-Bonheur\10 - Une exception.wav
     Pre-gap length  0:00:01.10
     Peak level 100.0 %
     Track quality 100.0 %
     Test CRC 2A05AD99
     Copy CRC 2A05AD99
     Copy OK
Track 11
     Filename F:\Torrent\FLAC\La Grande Sophie\Le Porte-Bonheur\11 - Oщ que tu ailles.wav
     Pre-gap length  0:00:01.66
     Peak level 100.0 %
     Track quality 99.9 %
     Test CRC AB4AC2A3
     Copy CRC AB4AC2A3
     Copy OK
Track 12
     Filename F:\Torrent\FLAC\La Grande Sophie\Le Porte-Bonheur\12 - Mon docteur.wav
     Pre-gap length  0:00:00.64
     Peak level 100.0 %
     Track quality 100.0 %
     Test CRC 7AAC08E6
     Copy CRC 7AAC08E6
     Copy OK
Track 13
     Filename F:\Torrent\FLAC\La Grande Sophie\Le Porte-Bonheur\13 - Des roses rouges.wav
     Pre-gap length  0:00:00.53
     Peak level 100.0 %
     Track quality 100.0 %
     Test CRC 259CBBF2
     Copy CRC 259CBBF2
     Copy OK
Track 14
     Filename F:\Torrent\FLAC\La Grande Sophie\Le Porte-Bonheur\14 - These boots are made for walking.wav
     Pre-gap length  0:00:01.29
     Peak level 100.0 %
     Track quality 100.0 %
     Test CRC 86790AE3
     Copy CRC 86790AE3
     Copy OK
Track 15
     Filename F:\Torrent\FLAC\La Grande Sophie\Le Porte-Bonheur\15 - Bye bye.wav
     Peak level 100.0 %
     Track quality 100.0 %
     Test CRC 6A4CB0F7
     Copy CRC 6A4CB0F7
     Copy OK
No errors occurred
End of status report

Код:
REM GENRE Chanson
REM DATE 2001
REM DISCID DB0C050F
REM COMMENT "ExactAudioCopy v0.99pb4"
FILE "La Grande Sophie\Le Porte-Bonheur\01 - Martin.wav" WAVE
  TRACK 01 AUDIO
    INDEX 01 00:00:00
FILE "La Grande Sophie\Le Porte-Bonheur\02 - T'es Comment  .wav" WAVE
  TRACK 02 AUDIO
    INDEX 01 00:00:00
  TRACK 03 AUDIO
    INDEX 00 03:21:10
FILE "La Grande Sophie\Le Porte-Bonheur\03 - La vie, le temps, l'amour.wav" WAVE
    INDEX 01 00:00:00
  TRACK 04 AUDIO
    INDEX 00 03:13:60
FILE "La Grande Sophie\Le Porte-Bonheur\04 - Le porte-bonheur.wav" WAVE
    INDEX 01 00:00:00
  TRACK 05 AUDIO
    INDEX 00 03:40:15
FILE "La Grande Sophie\Le Porte-Bonheur\05 - Sa petite volontй.wav" WAVE
    INDEX 01 00:00:00
  TRACK 06 AUDIO
    INDEX 00 03:54:30
FILE "La Grande Sophie\Le Porte-Bonheur\06 - Comme tu respires.wav" WAVE
    INDEX 01 00:00:00
FILE "La Grande Sophie\Le Porte-Bonheur\07 - L'amour зa pardonne pas.wav" WAVE
  TRACK 07 AUDIO
    INDEX 01 00:00:00
FILE "La Grande Sophie\Le Porte-Bonheur\08 - Des choses qui arrivent а tout l'monde.wav" WAVE
  TRACK 08 AUDIO
    INDEX 01 00:00:00
  TRACK 09 AUDIO
    INDEX 00 03:51:00
FILE "La Grande Sophie\Le Porte-Bonheur\09 - Chйri.wav" WAVE
    INDEX 01 00:00:00
  TRACK 10 AUDIO
    INDEX 00 03:07:47
FILE "La Grande Sophie\Le Porte-Bonheur\10 - Une exception.wav" WAVE
    INDEX 01 00:00:00
  TRACK 11 AUDIO
    INDEX 00 04:03:37
FILE "La Grande Sophie\Le Porte-Bonheur\11 - Oщ que tu ailles.wav" WAVE
    INDEX 01 00:00:00
  TRACK 12 AUDIO
    INDEX 00 02:46:05
FILE "La Grande Sophie\Le Porte-Bonheur\12 - Mon docteur.wav" WAVE
    INDEX 01 00:00:00
  TRACK 13 AUDIO
    INDEX 00 03:27:65
FILE "La Grande Sophie\Le Porte-Bonheur\13 - Des roses rouges.wav" WAVE
    INDEX 01 00:00:00
  TRACK 14 AUDIO
    INDEX 00 04:23:25
FILE "La Grande Sophie\Le Porte-Bonheur\14 - These boots are made for walking.wav" WAVE
    INDEX 01 00:00:00
FILE "La Grande Sophie\Le Porte-Bonheur\15 - Bye bye.wav" WAVE
  TRACK 15 AUDIO
    INDEX 01 00:00:00

Правила, инструкции, FAQ!!!
Торрент  Добавлен [26 мар 2019, 20:25] Скачать торрент Магнет ссылка
Скачать торрент
[ Размер 14.44 КБ / Просмотров 3 ]

Статус
Проверен 
 
Размер  332.48 МБ
Приватный: Нет (DHT включён)
.torrent скачан  0
 


     Отправить личное сообщение
   
Страница 1 из 1
Показать сообщения за:  Поле сортировки  
Начать новую тему Ответить на тему


Сейчас этот форум просматривают: нет зарегистрированных пользователей и гости: 0


Вы не можете начинать темы
Вы не можете отвечать на сообщения
Вы не можете редактировать свои сообщения
Вы не можете удалять свои сообщения
Вы не можете добавлять вложения

Перейти:  
cron