Начать новую тему Ответить на тему
Статистика раздачи
Размер: 482.91 МБ | Добавлен: 26 мар 2019, 19:17 | Скачали: 0
Сидеров: 0  [0 байт/сек]    Личеров: 0  [0 байт/сек]
Пред. тема | След. тема 

Автор
Сообщение

СообщениеДобавлено: 26 мар 2019, 19:17 

Ответить с цитатой 

La Grande Sophie / Et Si C'Etait Moi
Жанр: Pop-Rock
Страна-производитель диска: France
Год издания: 2004
Издатель (лейбл): Disc' AZ International
Номер по каталогу: 982 026-4
Страна: France
Аудиокодек: FLAC (*.flac)
Тип рипа: image+.cue
Битрейт аудио: lossless
Продолжительность: 01:04:45
Треклист:

01. Ringo Starr [3:57]
02. Du courage [3:39]
03. On savait (Devenir grand) [3:57]
04. Le passage oblige [3:16]
05. Sur une musique [4:07]
06. Meme pas [4:38]
07. Ma premiere ride [4:18]
08. Parigot [3:47]
09. Le roi des tourbillons [3:22]
10. Au debut [3:58]
11. Nulle part [3:29]
12. Mes deux yeux pour pleurer [3:01]
13. Rien que nous au monde [7:14]
14. Chanson demi minute [1:02]
15. Du courage (Unplugged) [3:51]
16. Rien que nous au monde (Unplugged) [4:08]
17. Sa petite volonte (Unplugged) [3:03]
 
"Любовь, отношения между людьми, одиночество, жизнь - все это неисчерпаемые сюжеты... У меня нет предпочтений в плане выбора темы. Я смотрю, изучаю... то, что меня окружает, и рассказываю о моментах жизни. Для меня имеет значение, чтобы слова звучали и создавали мелодию.." - из интервью с Ла Гранд Софи.
Код:
Exact Audio Copy V1.0 beta 3 from 29. August 2011
EAC extraction logfile from 15. May 2012, 22:06
La Grande Sophie / Et si c'était moi
Used drive  : PLEXTOR CD-R   PX-W2410A   Adapter: 2  ID: 0
Read mode               : Secure
Utilize accurate stream : Yes
Defeat audio cache      : Yes
Make use of C2 pointers : No
Read offset correction                      : 98
Overread into Lead-In and Lead-Out          : Yes
Fill up missing offset samples with silence : Yes
Delete leading and trailing silent blocks   : No
Null samples used in CRC calculations       : Yes
Used interface                              : Native Win32 interface for Win NT & 2000
Used output format              : User Defined Encoder
Selected bitrate                : 320 kBit/s
Quality                         : High
Add ID3 tag                     : No
Command line compressor         : C:\Program Files\Exact Audio Copy\FLAC\FLAC.EXE
Additional command line options : -V -8 -T "Date=%year%" -T "Genre=%genre%" %source% -o %dest%
TOC of the extracted CD
     Track |   Start  |  Length  | Start sector | End sector
    ---------------------------------------------------------
        1  |  0:00.00 |  3:56.52 |         0    |    17751
        2  |  3:56.52 |  3:38.55 |     17752    |    34156
        3  |  7:35.32 |  3:57.00 |     34157    |    51931
        4  | 11:32.32 |  3:15.59 |     51932    |    66615
        5  | 14:48.16 |  4:07.23 |     66616    |    85163
        6  | 18:55.39 |  4:37.61 |     85164    |   105999
        7  | 23:33.25 |  4:17.59 |    106000    |   125333
        8  | 27:51.09 |  3:46.41 |    125334    |   142324
        9  | 31:37.50 |  3:21.43 |    142325    |   157442
       10  | 34:59.18 |  3:58.08 |    157443    |   175300
       11  | 38:57.26 |  3:28.56 |    175301    |   190956
       12  | 42:26.07 |  3:00.65 |    190957    |   204521
       13  | 45:26.72 |  7:14.22 |    204522    |   237093
       14  | 52:41.19 |  1:02.05 |    237094    |   241748
       15  | 53:43.24 |  3:51.05 |    241749    |   259078
       16  | 57:34.29 |  4:07.51 |    259079    |   277654
       17  | 61:42.05 |  3:02.56 |    277655    |   291360
Range status and errors
Selected range
     Filename X:\EAC\La Grande Sophie – Et Si C'Etait Moi (2004).wav
     Peak level 100.0 %
     Extraction speed 12.3 X
     Range quality 100.0 %
     Test CRC 2BE1D235
     Copy CRC 2BE1D235
     Copy OK
No errors occurred
AccurateRip summary
Track  1  accurately ripped (confidence 8)  [CB7692DE]  (AR v1)
Track  2  accurately ripped (confidence 8)  [414CA73D]  (AR v1)
Track  3  accurately ripped (confidence 8)  [FDAE9CB8]  (AR v1)
Track  4  accurately ripped (confidence 8)  [5F0BDB0B]  (AR v1)
Track  5  accurately ripped (confidence 8)  [FB0CBD27]  (AR v1)
Track  6  accurately ripped (confidence 7)  [AE630C6F]  (AR v1)
Track  7  accurately ripped (confidence 7)  [02A70B1E]  (AR v1)
Track  8  accurately ripped (confidence 7)  [38558E0A]  (AR v1)
Track  9  accurately ripped (confidence 7)  [2E629716]  (AR v1)
Track 10  accurately ripped (confidence 7)  [7555ADDC]  (AR v1)
Track 11  accurately ripped (confidence 7)  [7BFF87E3]  (AR v1)
Track 12  accurately ripped (confidence 7)  [165D2596]  (AR v1)
Track 13  accurately ripped (confidence 7)  [A5FBDDA7]  (AR v1)
Track 14  accurately ripped (confidence 7)  [E4182A5D]  (AR v1)
Track 15  accurately ripped (confidence 7)  [35E7DE62]  (AR v1)
Track 16  accurately ripped (confidence 7)  [A8F52442]  (AR v1)
Track 17  accurately ripped (confidence 7)  [263AD1D1]  (AR v1)
All tracks accurately ripped
End of status report
---- CUETools DB Plugin V2.1.3
[CTDB TOCID: lp9Aq6u9gItZmLbYFnAQ21vVXwk-] disk not present in database, Submit result: lp9Aq6u9gItZmLbYFnAQ21vVXwk- has been uploaded
==== Log checksum 9E88800552478BB19E05866584CE112110EAB452E917C9D0B301D1F45E95115A ====
Код:
REM GENRE "Chanson Francaise"
REM DATE 2004
REM DISCID FA0F2C11
REM COMMENT "ExactAudioCopy v1.0b3"
PERFORMER "La Grande Sophie"
TITLE "Et si c'etait moi"
FILE "La Grande Sophie – Et Si C'Etait Moi (2004).flac" WAVE
  TRACK 01 AUDIO
    TITLE "Ringo Starr"
    PERFORMER "La Grande Sophie"
    ISRC FRZ800300490
    FLAGS DCP
    INDEX 01 00:00:00
  TRACK 02 AUDIO
    TITLE "Du courage"
    PERFORMER "La Grande Sophie"
    ISRC FRZ800300500
    FLAGS DCP
    INDEX 01 03:56:52
  TRACK 03 AUDIO
    TITLE "On savait (Devenir grand)"
    PERFORMER "La Grande Sophie"
    ISRC FRZ800300510
    FLAGS DCP
    INDEX 01 07:35:32
  TRACK 04 AUDIO
    TITLE "Le passage oblige"
    PERFORMER "La Grande Sophie"
    ISRC FRZ800300520
    FLAGS DCP
    INDEX 01 11:32:32
  TRACK 05 AUDIO
    TITLE "Sur une musique"
    PERFORMER "La Grande Sophie"
    ISRC FRZ800300530
    FLAGS DCP
    INDEX 01 14:48:16
  TRACK 06 AUDIO
    TITLE "Meme pas"
    PERFORMER "La Grande Sophie"
    ISRC FRZ800300550
    FLAGS DCP
    INDEX 01 18:55:39
  TRACK 07 AUDIO
    TITLE "Ma premiere ride"
    PERFORMER "La Grande Sophie"
    ISRC FRZ800300560
    FLAGS DCP
    INDEX 01 23:33:25
  TRACK 08 AUDIO
    TITLE "Parigot"
    PERFORMER "La Grande Sophie"
    ISRC FRZ800300570
    FLAGS DCP
    INDEX 01 27:51:09
  TRACK 09 AUDIO
    TITLE "Le roi des tourbillons"
    PERFORMER "La Grande Sophie"
    ISRC FRZ800300580
    FLAGS DCP
    INDEX 01 31:37:50
  TRACK 10 AUDIO
    TITLE "Au debut"
    PERFORMER "La Grande Sophie"
    ISRC FRZ800300590
    FLAGS DCP
    INDEX 01 34:59:18
  TRACK 11 AUDIO
    TITLE "Nulle part"
    PERFORMER "La Grande Sophie"
    ISRC FRZ800300600
    FLAGS DCP
    INDEX 01 38:57:26
  TRACK 12 AUDIO
    TITLE "Mes deux yeux pour pleurer"
    PERFORMER "La Grande Sophie"
    ISRC FRZ800300610
    FLAGS DCP
    INDEX 01 42:26:07
  TRACK 13 AUDIO
    TITLE "Rien que nous au monde"
    PERFORMER "La Grande Sophie"
    ISRC FRZ800300620
    FLAGS DCP
    INDEX 01 45:26:72
  TRACK 14 AUDIO
    TITLE "Chanson demi minute"
    PERFORMER "La Grande Sophie"
    ISRC FRZ800300630
    FLAGS DCP
    INDEX 01 52:41:19
  TRACK 15 AUDIO
    TITLE "Du courage (Unplugged)"
    PERFORMER "La Grande Sophie"
    ISRC FRZ800301040
    INDEX 01 53:43:24
  TRACK 16 AUDIO
    TITLE "Rien que nous au monde (Unplugged)"
    PERFORMER "La Grande Sophie"
    ISRC FRZ800301050
    INDEX 00 57:33:72
    INDEX 01 57:34:29
  TRACK 17 AUDIO
    TITLE "Sa petite volonte (Unplugged)"
    PERFORMER "La Grande Sophie"
    ISRC FRZ800301060
    INDEX 00 61:41:25
    INDEX 01 61:42:05
Код:
[CUETools log; Date: 15.05.2012 22:10:47; Version: 2.1.4]
[CTDB TOCID: lp9Aq6u9gItZmLbYFnAQ21vVXwk-] found.
Track | CTDB Status
  1   | (1/1) Accurately ripped
  2   | (1/1) Accurately ripped
  3   | (1/1) Accurately ripped
  4   | (1/1) Accurately ripped
  5   | (1/1) Accurately ripped
  6   | (1/1) Accurately ripped
  7   | (1/1) Accurately ripped
  8   | (1/1) Accurately ripped
  9   | (1/1) Accurately ripped
 10   | (1/1) Accurately ripped
 11   | (1/1) Accurately ripped
 12   | (1/1) Accurately ripped
 13   | (1/1) Accurately ripped
 14   | (1/1) Accurately ripped
 15   | (1/1) Accurately ripped
 16   | (1/1) Accurately ripped
 17   | (1/1) Accurately ripped
[AccurateRip ID: 0028a7f9-020295b0-fa0f2c11] found.
Track   [  CRC   |   V2   ] Status
 01     [cb7692de|d840e9a2] (08+00/13) Accurately ripped
 02     [414ca73d|12c1635c] (08+00/13) Accurately ripped
 03     [fdae9cb8|dcc6457a] (08+00/13) Accurately ripped
 04     [5f0bdb0b|c71970dc] (08+00/13) Accurately ripped
 05     [fb0cbd27|baf5f3b0] (08+00/13) Accurately ripped
 06     [ae630c6f|28b2f921] (07+00/12) Accurately ripped
 07     [02a70b1e|70944934] (07+00/12) Accurately ripped
 08     [38558e0a|cc4467b7] (07+00/12) Accurately ripped
 09     [2e629716|abb7d24f] (07+00/12) Accurately ripped
 10     [7555addc|cc7a9fb2] (07+00/12) Accurately ripped
 11     [7bff87e3|7f35896c] (07+00/12) Accurately ripped
 12     [165d2596|4f4fa0a9] (07+00/12) Accurately ripped
 13     [a5fbdda7|a4965efe] (07+00/12) Accurately ripped
 14     [e4182a5d|afc277ae] (07+00/12) Accurately ripped
 15     [35e7de62|412ccb4f] (07+00/12) Accurately ripped
 16     [a8f52442|14d0ac72] (07+00/12) Accurately ripped
 17     [263ad1d1|fed11b76] (07+00/11) Accurately ripped
Offsetted by 308:
 01     [cf36e8e2] (05/13) Accurately ripped
 02     [7bc252f1] (05/13) Accurately ripped
 03     [7b4de8b4] (05/13) Accurately ripped
 04     [df7cad43] (05/13) Accurately ripped
 05     [645584c7] (05/13) Accurately ripped
 06     [d0e1f2af] (05/12) Accurately ripped
 07     [f23c959e] (05/12) Accurately ripped
 08     [e8594fd2] (05/12) Accurately ripped
 09     [2e4af472] (05/12) Accurately ripped
 10     [f7446c98] (05/12) Accurately ripped
 11     [8ca5bc1f] (05/12) Accurately ripped
 12     [c582862e] (05/12) Accurately ripped
 13     [104012d3] (05/12) Accurately ripped
 14     [d0b09399] (05/12) Accurately ripped
 15     [4b46ad8a] (05/12) Accurately ripped
 16     [5e5baa4f] (05/12) Accurately ripped
 17     [60e7d5c8] (04/11) Accurately ripped
Track Peak [ CRC32  ] [W/O NULL] [  LOG   ]
 --  100,0 [2BE1D235] [9ED7E7C9]   CRC32
 01  100,0 [54F0B471] [5737DDFA]
 02  100,0 [FAF60ACC] [77E71150]
 03  100,0 [6C3E2872] [9332FB0E]
 04  100,0 [FE602AE8] [0EFFF893]
 05  100,0 [D6C57AA1] [3240D422]
 06  100,0 [493BAEFC] [D8186CDD]
 07  100,0 [579F501F] [3C1C8AA8]
 08  100,0 [8AFC84F5] [BE1F7B5B]
 09  100,0 [339D4B9B] [6D485E75]
 10  100,0 [C0A74F72] [E441D5D7]
 11  100,0 [A0CDF3D3] [76404E5F]
 12  100,0 [4426394E] [C9A9E540]
 13  100,0 [F31FDC4E] [1E27D3AE]
 14   99,2 [AC7155AA] [53C6A761]
 15   99,6 [0162B8FA] [DCAAFFE5]
 16   99,2 [76DF2BC5] [541B68BF]
 17   98,4 [09F3614E] [8B2903F7]
 
Дата рипа: 15.05.2012
Источник (релизер): оригинальный диск для рипа предоставлен vitl62
Наличие сканов в содержимом раздачи: да
Правила, инструкции, FAQ!!!
Торрент  Добавлен [26 мар 2019, 19:17] Скачать торрент Магнет ссылка
Скачать торрент
[ Размер 19.94 КБ / Просмотров 4 ]

Статус
Проверен 
 
Размер  482.91 МБ
Приватный: Нет (DHT включён)
.torrent скачан  0
 


     Отправить личное сообщение
   
Страница 1 из 1
Показать сообщения за:  Поле сортировки  
Начать новую тему Ответить на тему


Сейчас этот форум просматривают: нет зарегистрированных пользователей и гости: 0


Вы не можете начинать темы
Вы не можете отвечать на сообщения
Вы не можете редактировать свои сообщения
Вы не можете удалять свои сообщения
Вы не можете добавлять вложения

Перейти:  
cron