Начать новую тему Ответить на тему
Статистика раздачи
Размер: 311.46 МБ | Добавлен: 26 мар 2019, 20:47 | Скачали: 0
Сидеров: 0  [0 байт/сек]    Личеров: 0  [0 байт/сек]
Пред. тема | След. тема 

Автор
Сообщение

СообщениеДобавлено: 26 мар 2019, 20:47 

Ответить с цитатой 

Grace Potter - Midnight
Жанр: Pop Rock
Носитель: CD
Год издания: 2015
Издатель (лейбл): Hollywood Records, Inc.
Страна исполнителя (группы): US
Аудиокодек: FLAC (*.flac)
Тип рипа: tracks+.cue
Битрейт аудио: lossless
Продолжительность: 00:44:34
Источник (релизер): WRZMusic (Wilhelm Reich)
Наличие сканов в содержимом раздачи: нет

01. Hot to the Touch (3:31)
02. Alive Tonight (2:53)
03. Your Girl (3:38)
04. Empty Heart (3:15)
05. The Miner (4:01)
06. Delirious (4:56)
07. Look What We've Become (3:11)
08. Instigators (3:09)
09. Biggest Fan (3:42)
10. Low (4:04)
11. Nobody's Born With a Broken Heart (3:54)
12. Let You Go (4:15)
Код:
Exact Audio Copy V1.1 from 23. June 2015
EAC extraction logfile from 29. August 2015, 21:43
Grace Potter / Midnight
Used drive  : ATAPI   iHAS624   B   Adapter: 1  ID: 1
Read mode               : Secure
Utilize accurate stream : Yes
Defeat audio cache      : Yes
Make use of C2 pointers : No
Read offset correction                      : 6
Overread into Lead-In and Lead-Out          : No
Fill up missing offset samples with silence : Yes
Delete leading and trailing silent blocks   : No
Null samples used in CRC calculations       : Yes
Used interface                              : Native Win32 interface for Win NT & 2000
Gap handling                                : Appended to previous track
Used output format              : User Defined Encoder
Selected bitrate                : 896 kBit/s
Quality                         : High
Add ID3 tag                     : No
Command line compressor         : C:\Program Files (x86)\Exact Audio Copy\Flac\flac.exe
Additional command line options : -8 -V -T "ARTIST=%artist%" -T "TITLE=%title%" -T "ALBUM=%albumtitle%" -T "DATE=%year%" -T "TRACKNUMBER=%tracknr%" -T "GENRE=%genre%" -T "PERFORMER=%albuminterpret%" -T "COMPOSER=%composer%" %haslyrics%--tag-from-file=LYRICS="%lyricsfile%"%haslyrics% -T "ALBUMARTIST=%albumartist%" -T "ALBUM ARTIST=%albumartist%" -T "DISCNUMBER=%cdnumber%" -T "TOTALDISCS=%totalcds%" -T "TOTALTRACKS=%numtracks%" -T "COMMENT=EAC V1.1, Secure Mode, Test & Copy, AccurateRip, FLAC -8" %source% -o %dest%
TOC of the extracted CD
     Track |   Start  |  Length  | Start sector | End sector
    ---------------------------------------------------------
        1  |  0:00.00 |  3:31.30 |         0    |    15854
        2  |  3:31.30 |  2:53.00 |     15855    |    28829
        3  |  6:24.30 |  3:38.56 |     28830    |    45235
        4  | 10:03.11 |  3:15.40 |     45236    |    59900
        5  | 13:18.51 |  4:01.58 |     59901    |    78033
        6  | 17:20.34 |  4:56.38 |     78034    |   100271
        7  | 22:16.72 |  3:11.63 |    100272    |   114659
        8  | 25:28.60 |  3:08.74 |    114660    |   128833
        9  | 28:37.59 |  3:42.05 |    128834    |   145488
       10  | 32:19.64 |  4:04.59 |    145489    |   163847
       11  | 36:24.48 |  3:54.17 |    163848    |   181414
       12  | 40:18.65 |  4:15.06 |    181415    |   200545
Track  1
     Filename C:\EAC RIP\01 Hot to the Touch.wav
     Pre-gap length  0:00:02.00
     Peak level 100.0 %
     Extraction speed 4.6 X
     Track quality 100.0 %
     Test CRC 85AF1834
     Copy CRC 85AF1834
     Track not present in AccurateRip database
     Copy OK
Track  2
     Filename C:\EAC RIP\02 Alive Tonight.wav
     Peak level 100.0 %
     Extraction speed 4.0 X
     Track quality 99.9 %
     Test CRC AEA41A03
     Copy CRC AEA41A03
     Track not present in AccurateRip database
     Copy OK
Track  3
     Filename C:\EAC RIP\03 Your Girl.wav
     Peak level 100.0 %
     Extraction speed 5.2 X
     Track quality 100.0 %
     Test CRC 99DF3FDD
     Copy CRC 99DF3FDD
     Track not present in AccurateRip database
     Copy OK
Track  4
     Filename C:\EAC RIP\04 Empty Heart.wav
     Peak level 100.0 %
     Extraction speed 4.7 X
     Track quality 99.9 %
     Test CRC 8DF61DC7
     Copy CRC 8DF61DC7
     Track not present in AccurateRip database
     Copy OK
Track  5
     Filename C:\EAC RIP\05 The Miner.wav
     Peak level 100.0 %
     Extraction speed 6.0 X
     Track quality 100.0 %
     Test CRC 329E6C4B
     Copy CRC 329E6C4B
     Track not present in AccurateRip database
     Copy OK
Track  6
     Filename C:\EAC RIP\06 Delirious.wav
     Peak level 100.0 %
     Extraction speed 6.5 X
     Track quality 100.0 %
     Test CRC CB27D6F9
     Copy CRC CB27D6F9
     Track not present in AccurateRip database
     Copy OK
Track  7
     Filename C:\EAC RIP\07 Look What We've Become.wav
     Peak level 100.0 %
     Extraction speed 6.5 X
     Track quality 100.0 %
     Test CRC 02CAE4A3
     Copy CRC 02CAE4A3
     Track not present in AccurateRip database
     Copy OK
Track  8
     Filename C:\EAC RIP\08 Instigators.wav
     Peak level 100.0 %
     Extraction speed 6.6 X
     Track quality 100.0 %
     Test CRC D6D457F1
     Copy CRC D6D457F1
     Track not present in AccurateRip database
     Copy OK
Track  9
     Filename C:\EAC RIP\09 Biggest Fan.wav
     Peak level 100.0 %
     Extraction speed 6.0 X
     Track quality 99.9 %
     Test CRC DADF31ED
     Copy CRC DADF31ED
     Track not present in AccurateRip database
     Copy OK
Track 10
     Filename C:\EAC RIP\10 Low.wav
     Peak level 100.0 %
     Extraction speed 7.3 X
     Track quality 100.0 %
     Test CRC C1819BED
     Copy CRC C1819BED
     Track not present in AccurateRip database
     Copy OK
Track 11
     Filename C:\EAC RIP\11 Nobody's Born With a Broken Heart.wav
     Peak level 100.0 %
     Extraction speed 7.5 X
     Track quality 100.0 %
     Test CRC ABE23607
     Copy CRC ABE23607
     Track not present in AccurateRip database
     Copy OK
Track 12
     Filename C:\EAC RIP\12 Let You Go.wav
     Peak level 100.0 %
     Extraction speed 8.1 X
     Track quality 100.0 %
     Test CRC 91D551E7
     Copy CRC 91D551E7
     Track not present in AccurateRip database
     Copy OK
None of the tracks are present in the AccurateRip database
No errors occurred
End of status report
---- CUETools DB Plugin V2.1.6
[CTDB TOCID: R2UGSU.kpG9MWu6O__9f8aKVbEY-] disk not present in database
Submit result: R2UGSU.kpG9MWu6O__9f8aKVbEY- has been uploaded
==== Log checksum 7FADCB69405105BFD21BAB49810F81A3A31677D974FE9440060DFD7B58ADBACA ====
Код:
REM DATE 2015
REM DISCID 850A710C
REM COMMENT "ExactAudioCopy v1.1"
CATALOG 0500873080494
PERFORMER "Grace Potter"
TITLE "Midnight"
FILE "01 Hot to the Touch.wav" WAVE
  TRACK 01 AUDIO
    TITLE "Hot to the Touch"
    PERFORMER "Grace Potter"
    FLAGS DCP
    INDEX 01 00:00:00
FILE "02 Alive Tonight.wav" WAVE
  TRACK 02 AUDIO
    TITLE "Alive Tonight"
    PERFORMER "Grace Potter"
    FLAGS DCP
    INDEX 01 00:00:00
FILE "03 Your Girl.wav" WAVE
  TRACK 03 AUDIO
    TITLE "Your Girl"
    PERFORMER "Grace Potter"
    FLAGS DCP
    INDEX 01 00:00:00
FILE "04 Empty Heart.wav" WAVE
  TRACK 04 AUDIO
    TITLE "Empty Heart"
    PERFORMER "Grace Potter"
    FLAGS DCP
    INDEX 01 00:00:00
FILE "05 The Miner.wav" WAVE
  TRACK 05 AUDIO
    TITLE "The Miner"
    PERFORMER "Grace Potter"
    FLAGS DCP
    INDEX 01 00:00:00
FILE "06 Delirious.wav" WAVE
  TRACK 06 AUDIO
    TITLE "Delirious"
    PERFORMER "Grace Potter"
    FLAGS DCP
    INDEX 01 00:00:00
FILE "07 Look What We've Become.wav" WAVE
  TRACK 07 AUDIO
    TITLE "Look What We've Become"
    PERFORMER "Grace Potter"
    FLAGS DCP
    INDEX 01 00:00:00
FILE "08 Instigators.wav" WAVE
  TRACK 08 AUDIO
    TITLE "Instigators"
    PERFORMER "Grace Potter"
    FLAGS DCP
    INDEX 01 00:00:00
FILE "09 Biggest Fan.wav" WAVE
  TRACK 09 AUDIO
    TITLE "Biggest Fan"
    PERFORMER "Grace Potter"
    FLAGS DCP
    INDEX 01 00:00:00
FILE "10 Low.wav" WAVE
  TRACK 10 AUDIO
    TITLE "Low"
    PERFORMER "Grace Potter"
    FLAGS DCP
    INDEX 01 00:00:00
FILE "11 Nobody's Born With a Broken Heart.wav" WAVE
  TRACK 11 AUDIO
    TITLE "Nobody's Born With a Broken Heart"
    PERFORMER "Grace Potter"
    FLAGS DCP
    INDEX 01 00:00:00
FILE "12 Let You Go.wav" WAVE
  TRACK 12 AUDIO
    TITLE "Let You Go"
    PERFORMER "Grace Potter"
    FLAGS DCP
    INDEX 01 00:00:00
Код:
-----------------------
DON'T MODIFY THIS FILE
-----------------------
PERFORMER: auCDtect Task Manager, ver. 1.5.1RC6 build 1.5.1.7
Copyright (c) 2008-2010 y-soft. All rights reserved
[url=http://y-soft.org]http://y-soft.org[/url]
ANALYZER: auCDtect: CD records authenticity detector, version 0.8.2
Copyright (c) 2004 Oleg Berngardt. All rights reserved.
Copyright (c) 2004 Alexander Djourik. All rights reserved.
FILE: 01 Hot to the Touch.flac
  Size: 26066541 Hash: 650E95245F69D5995A3B27EE24A492C2 Accuracy: -m8
  Conclusion: CDDA 99%
  Signature: C673BC69ADECB19880393F1DFA68F22D7AC17249
FILE: 02 Alive Tonight.flac
  Size: 23526577 Hash: 4C3ACE5992BF525E75BCF677E9077AA0 Accuracy: -m8
  Conclusion: CDDA 100%
  Signature: 3663B0013D1E1049C2038D47FC72B1CFFBCED1EF
FILE: 03 Your Girl.flac
  Size: 24920127 Hash: 8E4FAAB127C0101C7CC66E48D4584A99 Accuracy: -m8
  Conclusion: CDDA 100%
  Signature: 8B2BDFACF47B4F1B6621FCF9470E3932845549A2
FILE: 04 Empty Heart.flac
  Size: 25531394 Hash: 22B186D7BB21295397E1A5E8E18107AD Accuracy: -m8
  Conclusion: CDDA 100%
  Signature: AEE592E5D130A0FF0FCC594FCD729F36B9426737
FILE: 05 The Miner.flac
  Size: 29412050 Hash: D81BF7C0A30AA7BBD9B2924F4D8CC2B0 Accuracy: -m8
  Conclusion: CDDA 99%
  Signature: 38B6BE8B07ED7B8FEDAFE0318DF96DB6E6B1F123
FILE: 06 Delirious.flac
  Size: 36160773 Hash: 1BBC1EACE8F0D5D81768B9676B70FA16 Accuracy: -m8
  Conclusion: CDDA 100%
  Signature: 75AF01CF278A951F58636B20B21B1011B7813354
FILE: 07 Look What We've Become.flac
  Size: 24197440 Hash: 609B1EF5EA4534AA1C4261F6E00A4F2E Accuracy: -m8
  Conclusion: CDDA 100%
  Signature: 09050584EA2472845C7E71E2BAAA17FE69FAE31F
FILE: 08 Instigators.flac
  Size: 24115720 Hash: 1443CD49B793F691BDFAFBBCA2E0AA84 Accuracy: -m8
  Conclusion: CDDA 100%
  Signature: 7CB082E00411A287F0DB7AA19BEF395F9FD3701D
FILE: 09 Biggest Fan.flac
  Size: 29429005 Hash: B14DF5B818D0DD7BC118F555420808D0 Accuracy: -m8
  Conclusion: CDDA 100%
  Signature: 8246C18FA537C449821E4934831A2454D2C1566E
FILE: 10 Low.flac
  Size: 28739030 Hash: 7FA92088A8F01E32593A64E55CCD9CB6 Accuracy: -m8
  Conclusion: CDDA 100%
  Signature: 2644889C09F5FDFF50C8CA659346DC7DC1004482
FILE: 11 Nobody's Born With a Broken Heart.flac
  Size: 29295282 Hash: 0866685C913960F26C183BD914E744C5 Accuracy: -m8
  Conclusion: CDDA 99%
  Signature: E4B5EE9A18314C15A4BFD9F2895C58F08E6EE4A7
FILE: 12 Let You Go.flac
  Size: 25100140 Hash: D13F7EB2ACDF4EA10BE74066D4E53067 Accuracy: -m8
  Conclusion: CDDA 100%
  Signature: 1306082425230DE0E8E298A17C929240052D0FDF
Код:
foobar2000 1.2.8 / Dynamic Range Meter 1.1.1
log date: 2015-08-30 20:06:46
--------------------------------------------------------------------------------
Analyzed: Grace Potter / Midnight
--------------------------------------------------------------------------------
DR         Peak         RMS     Duration Track
--------------------------------------------------------------------------------
DR6        0.00 dB    -8.08 dB      3:31 01-Hot to the Touch
DR6        0.00 dB    -7.75 dB      2:53 02-Alive Tonight
DR7        0.00 dB    -9.03 dB      3:39 03-Your Girl
DR6        0.00 dB    -7.67 dB      3:16 04-Empty Heart
DR6        0.00 dB    -8.07 dB      4:02 05-The Miner
DR5        0.00 dB    -7.68 dB      4:57 06-Delirious
DR5        0.00 dB    -7.50 dB      3:12 07-Look What We've Become
DR6        0.00 dB    -7.36 dB      3:09 08-Instigators
DR4        0.00 dB    -6.43 dB      3:42 09-Biggest Fan
DR6        0.00 dB    -8.56 dB      4:05 10-Low
DR5        0.00 dB    -7.99 dB      3:54 11-Nobody's Born With a Broken Heart
DR7        0.00 dB   -11.38 dB      4:15 12-Let You Go
--------------------------------------------------------------------------------
Number of tracks:  12
Official DR value: DR6
Samplerate:        44100 Hz
Channels:          2
Bits per sample:   16
Bitrate:           785 kbps
Codec:             FLAC
================================================================================

http://www.gracepotter.com/
https://www.youtube.com/user/gracepotterofficial
Правила, инструкции, FAQ!!!
Торрент  Добавлен [26 мар 2019, 20:47] Скачать торрент Магнет ссылка
Скачать торрент
[ Размер 8.1 КБ / Просмотров 0 ]

Статус
Проверен 
 
Размер  311.46 МБ
Приватный: Нет (DHT включён)
.torrent скачан  0
 


     Отправить личное сообщение
   
Страница 1 из 1
Показать сообщения за:  Поле сортировки  
Начать новую тему Ответить на тему


Сейчас этот форум просматривают: нет зарегистрированных пользователей и гости: 0


Вы не можете начинать темы
Вы не можете отвечать на сообщения
Вы не можете редактировать свои сообщения
Вы не можете удалять свои сообщения
Вы не можете добавлять вложения

Перейти:  
cron