Начать новую тему Ответить на тему
Статистика раздачи
Размер: 355.7 МБ | Добавлен: 26 мар 2019, 20:30 | Скачали: 0
Сидеров: 0  [0 байт/сек]    Личеров: 0  [0 байт/сек]
Пред. тема | След. тема 

Автор
Сообщение

СообщениеДобавлено: 26 мар 2019, 20:30 

Ответить с цитатой 

Glow / Every Single Day
Жанр: Pop-Rock
Носитель: CD
Страна-производитель диска (релиза): EU
Год издания: 2001
Издатель (лейбл): Gun - SUPERSONIC
Номер по каталогу: SUPERSONIC 070 74321 85383 2
Аудиокодек: FLAC (*.flac)
Тип рипа: tracks+.cue
Битрейт аудио: lossless
Продолжительность: 0:49:01.
Источник (релизер): clustert
Наличие сканов в содержимом раздачи: да
Треклист:
01. Beautiful Morning [0:03:20.44]
02. President Of Boarderland [0:03:51.27]
03. Footsteps In The Snow [0:04:03.47]
04. Celebrate Youth [0:03:44.74]
05. Miss You Today [0:03:02.47]
06. Betty Ford [0:03:00.72]
07. Orange Guitar Amp [0:03:09.13]
08. Let's Rock [0:03:42.41]
09. Julie Goes Out [0:03:52.02]
10. Every Single Day [0:03:41.19]
11. Repeat [0:03:51.58]
12. Travel Around The World [0:03:38.39]
13. All About Me [0:06:02.33]
Код:
Exact Audio Copy V1.0 beta 3 from 29. August 2011
Отчёт EAC об извлечении, выполненном 14. декабря 2015, 18:53
Glow / Every Single Day
Дисковод: ASUS    DVD-E616A3T   Adapter: 5  ID: 0
Режим чтения                 : Достоверность
Использование точного потока : Да
Отключение кэша аудио        : Да
Использование указателей C2  : Нет
Коррекция смещения при чтении                     : 6
Способность читать области Lead-in и Lead-out     : Нет
Заполнение пропущенных сэмплов тишиной            : Да
Удаление блоков с тишиной в начале и конце        : Нет
При вычислениях CRC использовались нулевые сэмплы : Да
Интерфейс                                         : Встроенный Win32-интерфейс для Win NT/2000
Обработка зазоров                                 : Добавлено к предыдущему треку
Выходной формат          : Пользовательский кодировщик
Выбранный битрейт        : 128 kBit/s
Качество                 : Высокий
Добавление ID3-тега      : Нет
Утилита сжатия           : C:\Program Files\Exact Audio Copy\Flac\flac.exe
Дополнительные параметры :  -V -8 -T "Genre=%genre%" -T "Artist=%artist%" -T "Title=%title%" -T "Album=%albumtitle%" -T "Date=%year%" -T "Tracknumber=%tracknr%" -T "Comment=EAC1.0b2 FLAC -8" %source%
TOC извлечённого CD
     Трек |   Старт  | Длительность | Начальный сектор | Конечный сектор
    ---------------------------------------------------------------------
       1  |  1:58.28 |    3:20.44   |        8878      |      23921
       2  |  5:18.72 |    3:51.27   |       23922      |      41273
       3  |  9:10.24 |    4:03.47   |       41274      |      59545
       4  | 13:13.71 |    3:44.74   |       59546      |      76419
       5  | 16:58.70 |    3:02.47   |       76420      |      90116
       6  | 20:01.42 |    3:00.72   |       90117      |     103688
       7  | 23:02.39 |    3:09.13   |      103689      |     117876
       8  | 26:11.52 |    3:42.41   |      117877      |     134567
       9  | 29:54.18 |    3:52.02   |      134568      |     151969
      10  | 33:46.20 |    3:41.19   |      151970      |     168563
      11  | 37:27.39 |    3:51.58   |      168564      |     185946
      12  | 41:19.22 |    3:38.39   |      185947      |     202335
      13  | 44:57.61 |    6:02.33   |      202336      |     229518
Трек  1
     Имя файла R:\Раздача 56\Glow - 2001 - Every Single Day\01 Beautiful Morning.wav
     Длина предзазора  0:02:00.28
     Пиковый уровень 99.2 %
     Скорость извлечения 1.7 X
     Качество трека 100.0 %
     CRC теста DF423B38
     CRC копии DF423B38
     Точное извлечение (достоверность 4)  [49EF599D]  (AR v1)
     Копирование... OK
Трек  2
     Имя файла R:\Раздача 56\Glow - 2001 - Every Single Day\02 President Of Boarderland.wav
     Длина предзазора  0:00:00.14
     Пиковый уровень 99.2 %
     Скорость извлечения 1.9 X
     Качество трека 100.0 %
     CRC теста 29539045
     CRC копии 29539045
     Точное извлечение (достоверность 4)  [F37A3AD7]  (AR v1)
     Копирование... OK
Трек  3
     Имя файла R:\Раздача 56\Glow - 2001 - Every Single Day\03 Footsteps In The Snow.wav
     Длина предзазора  0:00:00.71
     Пиковый уровень 99.2 %
     Скорость извлечения 2.0 X
     Качество трека 100.0 %
     CRC теста F6B1AFED
     CRC копии F6B1AFED
     Точное извлечение (достоверность 4)  [8C438D00]  (AR v1)
     Копирование... OK
Трек  4
     Имя файла R:\Раздача 56\Glow - 2001 - Every Single Day\04 Celebrate Youth.wav
     Длина предзазора  0:00:00.59
     Пиковый уровень 99.2 %
     Скорость извлечения 2.1 X
     Качество трека 100.0 %
     CRC теста FFC13F15
     CRC копии FFC13F15
     Точное извлечение (достоверность 5)  [31D674F7]  (AR v1)
     Копирование... OK
Трек  5
     Имя файла R:\Раздача 56\Glow - 2001 - Every Single Day\05 Miss You Today.wav
     Длина предзазора  0:00:01.06
     Пиковый уровень 99.2 %
     Скорость извлечения 2.2 X
     Качество трека 100.0 %
     CRC теста 41467225
     CRC копии 41467225
     Точное извлечение (достоверность 5)  [AA20525F]  (AR v1)
     Копирование... OK
Трек  6
     Имя файла R:\Раздача 56\Glow - 2001 - Every Single Day\06 Betty Ford.wav
     Длина предзазора  0:00:00.74
     Пиковый уровень 99.2 %
     Скорость извлечения 2.3 X
     Качество трека 100.0 %
     CRC теста 0C743C16
     CRC копии 0C743C16
     Точное извлечение (достоверность 4)  [91C5B76A]  (AR v1)
     Копирование... OK
Трек  7
     Имя файла R:\Раздача 56\Glow - 2001 - Every Single Day\07 Orange Guitar Amp.wav
     Длина предзазора  0:00:01.06
     Пиковый уровень 98.4 %
     Скорость извлечения 2.4 X
     Качество трека 100.0 %
     CRC теста 7ED8A09F
     CRC копии 7ED8A09F
     Точное извлечение (достоверность 4)  [B0595691]  (AR v1)
     Копирование... OK
Трек  8
     Имя файла R:\Раздача 56\Glow - 2001 - Every Single Day\08 Let's Rock.wav
     Пиковый уровень 99.2 %
     Скорость извлечения 2.6 X
     Качество трека 100.0 %
     CRC теста 9971C518
     CRC копии 9971C518
     Точное извлечение (достоверность 4)  [718CFBC9]  (AR v1)
     Копирование... OK
Трек  9
     Имя файла R:\Раздача 56\Glow - 2001 - Every Single Day\09 Julie Goes Out.wav
     Длина предзазора  0:00:01.52
     Пиковый уровень 99.2 %
     Скорость извлечения 2.7 X
     Качество трека 100.0 %
     CRC теста D107FAE7
     CRC копии D107FAE7
     Точное извлечение (достоверность 4)  [6895F00E]  (AR v1)
     Копирование... OK
Трек 10
     Имя файла R:\Раздача 56\Glow - 2001 - Every Single Day\10 Every Single Day.wav
     Длина предзазора  0:00:01.27
     Пиковый уровень 99.2 %
     Скорость извлечения 2.8 X
     Качество трека 100.0 %
     CRC теста D6F93FBE
     CRC копии D6F93FBE
     Точное извлечение (достоверность 4)  [80509C5D]  (AR v1)
     Копирование... OK
Трек 11
     Имя файла R:\Раздача 56\Glow - 2001 - Every Single Day\11 Repeat.wav
     Длина предзазора  0:00:01.25
     Пиковый уровень 99.2 %
     Скорость извлечения 2.9 X
     Качество трека 100.0 %
     CRC теста 10A780D8
     CRC копии 10A780D8
     Точное извлечение (достоверность 4)  [4202C4FC]  (AR v1)
     Копирование... OK
Трек 12
     Имя файла R:\Раздача 56\Glow - 2001 - Every Single Day\12 Travel Around The World.wav
     Длина предзазора  0:00:02.05
     Пиковый уровень 99.2 %
     Скорость извлечения 3.0 X
     Качество трека 100.0 %
     CRC теста AFC1C7AB
     CRC копии AFC1C7AB
     Точное извлечение (достоверность 4)  [53FEDA9E]  (AR v1)
     Копирование... OK
Трек 13
     Имя файла R:\Раздача 56\Glow - 2001 - Every Single Day\13 All About Me.wav
     Длина предзазора  0:00:02.29
     Пиковый уровень 98.0 %
     Скорость извлечения 3.3 X
     Качество трека 100.0 %
     CRC теста 476C5E01
     CRC копии 476C5E01
     Точное извлечение (достоверность 4)  [C2CDD34F]  (AR v1)
     Копирование... OK
Все треки извлечены точно
Ошибок не произошло
Конец отчёта
==== Контрольная сумма отчёта A343A5570A931FB79035DFC8B811C0436C1484CE46BCCFB4FABDBB657D1FED7B ====
Код:
REM GENRE Pop
REM DATE 2001
REM DISCID AF0B7E0D
REM COMMENT "ExactAudioCopy v1.0b3"
PERFORMER "Glow"
TITLE "Every Single Day"
FILE "01 Beautiful Morning.wav" WAVE
  TRACK 01 AUDIO
    TITLE "Beautiful Morning"
    PERFORMER "Glow"
    ISRC DEC680100175
    PREGAP 01:58:28
    INDEX 01 00:00:00
  TRACK 02 AUDIO
    TITLE "President Of Boarderland"
    PERFORMER "Glow"
    ISRC DEC680100176
    INDEX 00 03:20:30
FILE "02 President Of Boarderland.wav" WAVE
    INDEX 01 00:00:00
  TRACK 03 AUDIO
    TITLE "Footsteps In The Snow"
    PERFORMER "Glow"
    ISRC DEC680100177
    INDEX 00 03:50:31
FILE "03 Footsteps In The Snow.wav" WAVE
    INDEX 01 00:00:00
  TRACK 04 AUDIO
    TITLE "Celebrate Youth"
    PERFORMER "Glow"
    ISRC DEC680100178
    INDEX 00 04:02:63
FILE "04 Celebrate Youth.wav" WAVE
    INDEX 01 00:00:00
  TRACK 05 AUDIO
    TITLE "Miss You Today"
    PERFORMER "Glow"
    ISRC DEC680002094
    INDEX 00 03:43:68
FILE "05 Miss You Today.wav" WAVE
    INDEX 01 00:00:00
  TRACK 06 AUDIO
    TITLE "Betty Ford"
    PERFORMER "Glow"
    ISRC DEC680100179
    INDEX 00 03:01:48
FILE "06 Betty Ford.wav" WAVE
    INDEX 01 00:00:00
  TRACK 07 AUDIO
    TITLE "Orange Guitar Amp"
    PERFORMER "Glow"
    ISRC DEC680100180
    INDEX 00 02:59:66
FILE "07 Orange Guitar Amp.wav" WAVE
    INDEX 01 00:00:00
FILE "08 Let's Rock.wav" WAVE
  TRACK 08 AUDIO
    TITLE "Let's Rock"
    PERFORMER "Glow"
    ISRC DEC680100181
    INDEX 01 00:00:00
  TRACK 09 AUDIO
    TITLE "Julie Goes Out"
    PERFORMER "Glow"
    ISRC DEC680100182
    INDEX 00 03:40:64
FILE "09 Julie Goes Out.wav" WAVE
    INDEX 01 00:00:00
  TRACK 10 AUDIO
    TITLE "Every Single Day"
    PERFORMER "Glow"
    ISRC DEC680100183
    INDEX 00 03:50:50
FILE "10 Every Single Day.wav" WAVE
    INDEX 01 00:00:00
  TRACK 11 AUDIO
    TITLE "Repeat"
    PERFORMER "Glow"
    ISRC DEC680100184
    INDEX 00 03:39:69
FILE "11 Repeat.wav" WAVE
    INDEX 01 00:00:00
  TRACK 12 AUDIO
    TITLE "Travel Around The World "
    PERFORMER "Glow"
    ISRC DEC689900094
    INDEX 00 03:49:53
FILE "12 Travel Around The World.wav" WAVE
    INDEX 01 00:00:00
  TRACK 13 AUDIO
    TITLE "All About Me"
    PERFORMER "Glow"
    ISRC DEC680002095
    INDEX 00 03:36:10
FILE "13 All About Me.wav" WAVE
    INDEX 01 00:00:00
Правила, инструкции, FAQ!!!
Торрент  Добавлен [26 мар 2019, 20:30] Скачать торрент Магнет ссылка
Скачать торрент
[ Размер 15.88 КБ / Просмотров 0 ]

Статус
Проверен 
 
Размер  355.7 МБ
Приватный: Нет (DHT включён)
.torrent скачан  0
 


     Отправить личное сообщение
   
Страница 1 из 1
Показать сообщения за:  Поле сортировки  
Начать новую тему Ответить на тему


Сейчас этот форум просматривают: нет зарегистрированных пользователей и гости: 0


Вы не можете начинать темы
Вы не можете отвечать на сообщения
Вы не можете редактировать свои сообщения
Вы не можете удалять свои сообщения
Вы не можете добавлять вложения

Перейти:  
cron