Начать новую тему Ответить на тему
Статистика раздачи
Размер: 244.41 МБ | Добавлен: 28 апр 2020, 19:54 | Скачали: 0
Сидеров: 0  [0 байт/сек]    Личеров: 0  [0 байт/сек]
Пред. тема | След. тема 

Автор
Сообщение

СообщениеДобавлено: 28 апр 2020, 19:54 

Ответить с цитатой 

Sparks - A Woofer In Tweeter's Clothing
Жанр: Pop Rock, Glam Rock
Носитель: CD
Страна-производитель диска: RU (Unofficial Release)
Год выпуска диска: 2019
Издатель (лейбл): Repertoire Records
Номер по каталогу: RR 4051-C
Страна: USA
Аудио кодек: FLAC
Тип рипа: tracks+.cue
Битрейт аудио: lossless
Продолжительность: 00:39:31
Источник (релизер): Sket4er
Наличие сканов в содержимом раздачи: да
Треклист:
01. Girl From Germany
02. Beaver O'Lindy
03. Nothing Is Sacred
04. Here Comes Bob
05. Moon Over Kentucky
06. Do-Re-Mi
07. Angus Desire
08. Underground
09. The Louvre
10. Batteries Not Included
11. Whippings And Apologies
Код:
Exact Audio Copy V1.3 from 2. September 2016
EAC extraction logfile from 9. April 2020, 22:24
Sparks / A Woofer In Tweeter's Clothing
Used drive  : ASUS    DRW-24D5MT   Adapter: 1  ID: 0
Read mode               : Secure
Utilize accurate stream : Yes
Defeat audio cache      : Yes
Make use of C2 pointers : No
Read offset correction                      : 6
Overread into Lead-In and Lead-Out          : No
Fill up missing offset samples with silence : Yes
Delete leading and trailing silent blocks   : No
Null samples used in CRC calculations       : Yes
Used interface                              : Native Win32 interface for Win NT & 2000
Gap handling                                : Appended to previous track
Used output format              : User Defined Encoder
Selected bitrate                : 1024 kBit/s
Quality                         : High
Add ID3 tag                     : No
Command line compressor         : C:\Program Files (x86)\Exact Audio Copy\Flac\flac.exe
Additional command line options :  -V -8 -T "Genre=%genre%" -T "Artist=%artist%" -T "Title=%title%" -T "Album=%albumtitle%" -T "Date=%year%" -T "Tracknumber=%tracknr%" -T "Comment=%comment%" %source%
TOC of the extracted CD
     Track |   Start  |  Length  | Start sector | End sector
    ---------------------------------------------------------
        1  |  0:00.00 |  3:30.25 |         0    |    15774
        2  |  3:30.25 |  3:45.11 |     15775    |    32660
        3  |  7:15.36 |  5:33.53 |     32661    |    57688
        4  | 12:49.14 |  2:12.23 |     57689    |    67611
        5  | 15:01.37 |  4:11.36 |     67612    |    86472
        6  | 19:12.73 |  3:40.08 |     86473    |   102980
        7  | 22:53.06 |  3:20.56 |    102981    |   118036
        8  | 26:13.62 |  2:55.40 |    118037    |   131201
        9  | 29:09.27 |  4:53.03 |    131202    |   153179
       10  | 34:02.30 |  0:44.69 |    153180    |   156548
       11  | 34:47.24 |  4:43.36 |    156549    |   177809
Track  1
     Filename H:\Sket4er\Sparks – A Woofer In Tweeter's Clothing (1973)  1990\01 Girl From Germany.wav
     Pre-gap length  0:00:02.00
     Peak level 99.0 %
     Extraction speed 1.1 X
     Track quality 100.0 %
     Test CRC 67259030
     Copy CRC 67259030
     Track not present in AccurateRip database
     Copy OK
Track  2
     Filename H:\Sket4er\Sparks – A Woofer In Tweeter's Clothing (1973)  1990\02 Beaver O' Lindy.wav
     Peak level 99.6 %
     Extraction speed 1.2 X
     Track quality 100.0 %
     Test CRC 3924A1FA
     Copy CRC 3924A1FA
     Track not present in AccurateRip database
     Copy OK
Track  3
     Filename H:\Sket4er\Sparks – A Woofer In Tweeter's Clothing (1973)  1990\03 Nothing Is Sacred.wav
     Peak level 98.8 %
     Extraction speed 1.4 X
     Track quality 100.0 %
     Test CRC 840CC393
     Copy CRC 840CC393
     Track not present in AccurateRip database
     Copy OK
Track  4
     Filename H:\Sket4er\Sparks – A Woofer In Tweeter's Clothing (1973)  1990\04 Here Comes Bob.wav
     Peak level 93.6 %
     Extraction speed 1.3 X
     Track quality 100.0 %
     Test CRC 28867F99
     Copy CRC 28867F99
     Track not present in AccurateRip database
     Copy OK
Track  5
     Filename H:\Sket4er\Sparks – A Woofer In Tweeter's Clothing (1973)  1990\05 Moon Over Kentucky.wav
     Peak level 99.0 %
     Extraction speed 1.5 X
     Track quality 100.0 %
     Test CRC 1DBFD4C2
     Copy CRC 1DBFD4C2
     Track not present in AccurateRip database
     Copy OK
Track  6
     Filename H:\Sket4er\Sparks – A Woofer In Tweeter's Clothing (1973)  1990\06 Do-Re-Mi.wav
     Peak level 99.4 %
     Extraction speed 1.4 X
     Track quality 99.9 %
     Test CRC 3E6FE992
     Copy CRC 3E6FE992
     Track not present in AccurateRip database
     Copy OK
Track  7
     Filename H:\Sket4er\Sparks – A Woofer In Tweeter's Clothing (1973)  1990\07 Angus Desire.wav
     Peak level 100.0 %
     Extraction speed 1.6 X
     Track quality 100.0 %
     Test CRC 0B261FF3
     Copy CRC 0B261FF3
     Track not present in AccurateRip database
     Copy OK
Track  8
     Filename H:\Sket4er\Sparks – A Woofer In Tweeter's Clothing (1973)  1990\08 Underground.wav
     Peak level 98.7 %
     Extraction speed 1.7 X
     Track quality 100.0 %
     Test CRC 3F59F123
     Copy CRC 3F59F123
     Track not present in AccurateRip database
     Copy OK
Track  9
     Filename H:\Sket4er\Sparks – A Woofer In Tweeter's Clothing (1973)  1990\09 The Louvre.wav
     Peak level 100.0 %
     Extraction speed 1.9 X
     Track quality 100.0 %
     Test CRC E6435104
     Copy CRC E6435104
     Track not present in AccurateRip database
     Copy OK
Track 10
     Filename H:\Sket4er\Sparks – A Woofer In Tweeter's Clothing (1973)  1990\10 Batteries Not Included.wav
     Peak level 96.7 %
     Extraction speed 1.2 X
     Track quality 100.0 %
     Test CRC FDF67639
     Copy CRC FDF67639
     Track not present in AccurateRip database
     Copy OK
Track 11
     Filename H:\Sket4er\Sparks – A Woofer In Tweeter's Clothing (1973)  1990\11 Whippings And Apologies.wav
     Peak level 100.0 %
     Extraction speed 1.9 X
     Track quality 100.0 %
     Test CRC ED2604BD
     Copy CRC ED2604BD
     Track not present in AccurateRip database
     Copy OK
None of the tracks are present in the AccurateRip database
No errors occurred
End of status report
---- CUETools DB Plugin V2.1.6
[CTDB TOCID: 1MDyDrTB4r2kfjjw.6djjVUSw3A-] disk not present in database
Submit result: 1MDyDrTB4r2kfjjw.6djjVUSw3A- has been uploaded
==== Log checksum 31C253917B46E7B6D637708552032AC47737DCE9E6A6B751D10F890CD7036CB4 ====
Код:
REM GENRE Rock
REM DATE 1973
REM DISCID 8809420B
REM COMMENT "ExactAudioCopy v1.3"
PERFORMER "Sparks"
TITLE "A Woofer In Tweeter's Clothing"
REM COMPOSER ""
FILE "01 Girl From Germany.wav" WAVE
  TRACK 01 AUDIO
    TITLE "Girl From Germany"
    PERFORMER "Sparks"
    REM COMPOSER ""
    INDEX 01 00:00:00
FILE "02 Beaver O' Lindy.wav" WAVE
  TRACK 02 AUDIO
    TITLE "Beaver O' Lindy"
    PERFORMER "Sparks"
    REM COMPOSER ""
    INDEX 01 00:00:00
FILE "03 Nothing Is Sacred.wav" WAVE
  TRACK 03 AUDIO
    TITLE "Nothing Is Sacred"
    PERFORMER "Sparks"
    REM COMPOSER ""
    INDEX 01 00:00:00
FILE "04 Here Comes Bob.wav" WAVE
  TRACK 04 AUDIO
    TITLE "Here Comes Bob"
    PERFORMER "Sparks"
    REM COMPOSER ""
    INDEX 01 00:00:00
FILE "05 Moon Over Kentucky.wav" WAVE
  TRACK 05 AUDIO
    TITLE "Moon Over Kentucky"
    PERFORMER "Sparks"
    REM COMPOSER ""
    INDEX 01 00:00:00
FILE "06 Do-Re-Mi.wav" WAVE
  TRACK 06 AUDIO
    TITLE "Do-Re-Mi"
    PERFORMER "Sparks"
    REM COMPOSER ""
    INDEX 01 00:00:00
FILE "07 Angus Desire.wav" WAVE
  TRACK 07 AUDIO
    TITLE "Angus Desire"
    PERFORMER "Sparks"
    REM COMPOSER ""
    INDEX 01 00:00:00
FILE "08 Underground.wav" WAVE
  TRACK 08 AUDIO
    TITLE "Underground"
    PERFORMER "Sparks"
    REM COMPOSER ""
    INDEX 01 00:00:00
FILE "09 The Louvre.wav" WAVE
  TRACK 09 AUDIO
    TITLE "The Louvre"
    PERFORMER "Sparks"
    REM COMPOSER ""
    INDEX 01 00:00:00
FILE "10 Batteries Not Included.wav" WAVE
  TRACK 10 AUDIO
    TITLE "Batteries Not Included"
    PERFORMER "Sparks"
    REM COMPOSER ""
    INDEX 01 00:00:00
FILE "11 Whippings And Apologies.wav" WAVE
  TRACK 11 AUDIO
    TITLE "Whippings And Apologies"
    PERFORMER "Sparks"
    REM COMPOSER ""
    INDEX 01 00:00:00
Код:
-----------------------
DON'T MODIFY THIS FILE
-----------------------
PERFORMER: auCDtect Task Manager, ver. 1.5.1RC4 build 1.5.1.5
Copyright (c) 2008-2010 y-soft. All rights reserved
[url=http://y-soft.org]http://y-soft.org[/url]
ANALYZER: auCDtect: CD records authenticity detector, version 0.8.2
Copyright (c) 2004 Oleg Berngardt. All rights reserved.
Copyright (c) 2004 Alexander Djourik. All rights reserved.
FILE: 11 Whippings And Apologies.flac
  Size: 30228008 Hash: A4E54B87314A2584EA87B6B1F49FCA67 Accuracy: -m0
  Conclusion: MPEG 95%
  Signature: A770F601B86DAED1602EF57BC841E88CE7DE43E3
[url=https://funkyimg.com/view/33WFX][img]https://funkyimg.com/p/33WFX.jpg[/img][/url]
FILE: 10 Batteries Not Included.flac
  Size: 4794549 Hash: 57ADE98B130919CCB2448ABB6D46048B Accuracy: -m0
  Conclusion: CDDA 92%
  Signature: D9D2BD9B69FB3164018E40B335A6BE49EDFD5D7D
FILE: 09 The Louvre.flac
  Size: 32040180 Hash: 0CAA5511B5BBE70180FB78D6E58735D7 Accuracy: -m0
  Conclusion: MPEG 95%
  Signature: 1636E0B41C905490BF5C66BE87B27DC1B23E7D8F
[url=https://funkyimg.com/view/33WFW][img]https://funkyimg.com/p/33WFW.jpg[/img][/url]
FILE: 08 Underground.flac
  Size: 18524442 Hash: 1E98EE32EB24CD42992D1112ACD64873 Accuracy: -m0
  Conclusion: MPEG 95%
  Signature: 57B3F194D22E5F692AAAC0521484EB705FD64398
[url=https://funkyimg.com/view/33WFV][img]https://funkyimg.com/p/33WFV.jpg[/img][/url]
FILE: 07 Angus Desire.flac
  Size: 19676984 Hash: 4FC852F6B2069EAF5CC358D19006419E Accuracy: -m0
  Conclusion: MPEG 95%
  Signature: 0E4CA58BB10C75E527BBD45DF01B5D6D1085C7ED
[url=https://funkyimg.com/view/33WFU][img]https://funkyimg.com/p/33WFU.jpg[/img][/url]
FILE: 06 Do-Re-Mi.flac
  Size: 23705755 Hash: 802225310BA6132122BD8A26E52F3CFF Accuracy: -m0
  Conclusion: MPEG 95%
  Signature: 4AA89FEA57676D7D038548894B3036040787302F
[url=https://funkyimg.com/view/33WFT][img]https://funkyimg.com/p/33WFT.jpg[/img][/url]
FILE: 05 Moon Over Kentucky.flac
  Size: 25959802 Hash: 1E9347F3C04C0F86CD1553D12F35451A Accuracy: -m0
  Conclusion: MPEG 95%
  Signature: D822F312AB25D70E1843936A6F95C6BFB7438EBC
[url=https://funkyimg.com/view/33WFS][img]https://funkyimg.com/p/33WFS.jpg[/img][/url]
FILE: 04 Here Comes Bob.flac
  Size: 13971593 Hash: 775D79943F6BCF59E75F7ABAF81140F2 Accuracy: -m0
  Conclusion: MPEG 95%
  Signature: E221D3E3335A03144B681920095443AAFA640DAF
[url=https://funkyimg.com/view/33WFQ][img]https://funkyimg.com/p/33WFQ.jpg[/img][/url]
FILE: 03 Nothing Is Sacred.flac
  Size: 36593857 Hash: 619EB738B85DFBE55F3C3C3C293AD105 Accuracy: -m0
  Conclusion: MPEG 95%
  Signature: CCE4F0854B724B44D11B37044641A928C9D70FCB
[url=https://funkyimg.com/view/33WFR][img]https://funkyimg.com/p/33WFR.jpg[/img][/url]
FILE: 02 Beaver O' Lindy.flac
  Size: 22339480 Hash: 2A7D0ADAC36E05969AB1BF84EAC8BB0C Accuracy: -m0
  Conclusion: MPEG 95%
  Signature: CA1C21506F7A70B19F9031D8DFD8AB12CDAAB6E8
[url=https://funkyimg.com/view/33WFP][img]https://funkyimg.com/p/33WFP.jpg[/img][/url]
FILE: 01 Girl From Germany.flac
  Size: 23132554 Hash: B1AB3A98136946E3E3CC48A7C8209E1F Accuracy: -m0
  Conclusion: MPEG 95%
  Signature: 16FA8ACE6D7379B0CDFBEBBA22E46166B9D92644
[url=https://funkyimg.com/view/33WFN][img]https://funkyimg.com/p/33WFN.jpg[/img][/url]
Код:
[CUETools log; Date: 12.04.2020 22:17:40; Version: 2.1.6]
[CTDB TOCID: 1MDyDrTB4r2kfjjw.6djjVUSw3A-] found.
Track | CTDB Status
  1   | (1/1) Accurately ripped
  2   | (1/1) Accurately ripped
  3   | (1/1) Accurately ripped
  4   | (1/1) Accurately ripped
  5   | (1/1) Accurately ripped
  6   | (1/1) Accurately ripped
  7   | (1/1) Accurately ripped
  8   | (1/1) Accurately ripped
  9   | (1/1) Accurately ripped
 10   | (1/1) Accurately ripped
 11   | (1/1) Accurately ripped
[AccurateRip ID: 0010c8c1-009034e8-8809420b] disk not present in database.
Track Peak [ CRC32  ] [W/O NULL] [  LOG   ]
 --  100,0 [51A991D7] [15D35657]
 01   99,0 [67259030] [F2C44E2E]   CRC32
 02   99,6 [3924A1FA] [D57D2E0D]   CRC32
 03   98,8 [840CC393] [E41946A0]   CRC32
 04   93,6 [28867F99] [EB20D604]   CRC32
 05   99,0 [1DBFD4C2] [8F63E530]   CRC32
 06   99,4 [3E6FE992] [AB98D841]   CRC32
 07  100,0 [0B261FF3] [DE15B6AB]   CRC32
 08   98,7 [3F59F123] [4484242D]   CRC32
 09  100,0 [E6435104] [E622BF54]   CRC32
 10   96,7 [FDF67639] [89B59DDB]   CRC32
 11  100,0 [ED2604BD] [32269257]   CRC32
Код:
foobar2000 1.3.9 / Замер динамического диапазона (DR) 1.1.1
Дата отчёта:  2020-04-12 22:44:44
--------------------------------------------------------------------------------
Анализ:   Sparks / A Woofer In Tweeter's Clothing
--------------------------------------------------------------------------------
DR         Пики         RMS           Продолжительность трека
--------------------------------------------------------------------------------
DR9       -0.08 дБ   -10.56 дБ      3:30 01-Girl From Germany
DR8       -0.03 дБ   -11.15 дБ      3:45 02-Beaver O' Lindy
DR8       -0.10 дБ    -9.47 дБ      5:34 03-Nothing Is Sacred
DR10      -0.57 дБ   -12.67 дБ      2:12 04-Here Comes Bob
DR8       -0.08 дБ   -10.28 дБ      4:11 05-Moon Over Kentucky
DR8       -0.05 дБ    -9.53 дБ      3:40 06-Do-Re-Mi
DR9        0.00 дБ   -12.46 дБ      3:21 07-Angus Desire
DR8       -0.11 дБ    -9.97 дБ      2:56 08-Underground
DR8        0.00 дБ   -10.84 дБ      4:53 09-The Louvre
DR9       -0.29 дБ   -12.79 дБ      0:45 10-Batteries Not Included
DR9        0.00 дБ   -11.06 дБ      4:43 11-Whippings And Apologies
--------------------------------------------------------------------------------
Количество треков: 11
Реальные значения DR: DR9
Частота:   44100 Гц
Каналов:   2
Разрядность:   16
Битрейт:   853 кбит/с
Кодек:   FLAC
================================================================================
Доп. информация
Russell Mael - vocals
Ron Mael - keyboards
Earle Mankey - guitar
Jim Mankey - bass
Harley Feinstein - drums
Woofer... starts with another killer opening track, musically and lyrically, with "Girl From Germany," a chugging number detailing the problems the narrator has with his parents over his girlfriend, given their lingering wartime attitudes. The album builds upon the strengths of the debut to create an even better experience all around. The same five-person lineup offers more sharp performances. Album engineering veteran James Lowe takes over production reins from Rundgren, with, happily, no audible sense of trying to make the album more commercial. If anything, things are even wiggier this time around, from the naughtily-titled sea chanty which turns into a full-on rocker "Beaver O'Lindy" and the strings-plus-piano "Here Comes Bob," to the album's completely wacked-out, dramatic centerpiece "Moon Over Kentucky." Melodies start approaching the hyperactivity level which would flower completely on the band's subsequent releases. Ron and Earle Mankey trade off or play against each other, while the rhythm section of Jim Mankey and Feinstein executes the kind of sharp tempo changes which would become de rigueur for thrash-metal bands of the '80s, but fit in perfectly here with the spastic pop being played. Russell soars and croons over it all like an angel on deeply disturbing drugs, wrapping his vocals around such lines as "We surely will appreciate our newfound leisure time" from "Nothing is Sacred." The long-time live favorite "Do-Re-Mi" -- indeed a cover of the number from The Sound of Music -- first appears here as well, taking Rodgers and Hammerstein to a level Julie Andrews might be hardpressed to follow. Anyone wondering why Faith No More appeared on Sparks' self-tribute album Plagiarism need only listen to Woofer to understand -- as a full-on purée of musical styles in the service of twisted viewpoints, it's a perfect album.
https://www.allmusic.com/album/a-woofer-in-tweeters-clothing-mw0000761909
https://en.wikipedia.org/wiki/Sparks_%28band%29
https://en.wikipedia.org/wiki/A_Woofer_in_Tweeter%27s_Clothing
http://allsparks.com
Правила, инструкции, FAQ!!!
Торрент  Добавлен [28 апр 2020, 19:54] Скачать торрент Магнет ссылка
Скачать торрент
[ Размер 20.77 КБ / Просмотров 9 ]

Статус
Проверен 
 
Размер  244.41 МБ
Приватный: Нет (DHT включён)
.torrent скачан  0
 


     Отправить личное сообщение
   
Страница 1 из 1
Показать сообщения за:  Поле сортировки  
Начать новую тему Ответить на тему


Сейчас этот форум просматривают: нет зарегистрированных пользователей и гости: 0


Вы не можете начинать темы
Вы не можете отвечать на сообщения
Вы не можете редактировать свои сообщения
Вы не можете удалять свои сообщения
Вы не можете добавлять вложения

Перейти:  
cron