Начать новую тему Ответить на тему
Статистика раздачи
Размер: 322.94 МБ | Добавлен: 26 мар 2019, 19:43 | Скачали: 0
Сидеров: 0  [0 байт/сек]    Личеров: 0  [0 байт/сек]
Пред. тема | След. тема 

Автор
Сообщение

СообщениеДобавлено: 26 мар 2019, 19:43 

Ответить с цитатой 

The Ark - 2002 - In Lust We Trust
Жанр: Pop Rock, Glam Rock, New Wave
Страна-производитель диска: Sweden
Год издания диска: 2002
Издатель (лейбл): Virgin
Номер по каталогу: 7243 813237 2 4
Страна: Sweden
Аудиокодек: FLAC (*.flac)
Тип рипа: image+.cue
Битрейт аудио: lossless
Продолжительность: 00:42:56
Источник (релизер): My Disc
Наличие сканов в содержимом раздачи: да
Треклист:
1. Beauty Is the Beast (Ola Salo) - 3:38
2. Father of a Son (Ola Salo) - 3:22
3. Tell Me This Night Is Over (Ola Salo) - 5:15
4. Calleth You, Cometh I (Ola Salo, Peter Kvint) - 4:32
5. A Virgin Like You (Ola Salo) - 4:31
6. Interlude (Leari) - 1:07
7. Tired of Being an Object? (Ola Salo) - 2:43
8. Disease (Ola Salo) - 3:16
9. Vendelay (Ola Salo)- 3:22
10. 2000 Light-Years of Darkness (Ola Salo) - 7:02
11. The Most Radical Thing to Do (Ola Salo) - 4:11
Код:
Exact Audio Copy V1.0 beta 3 from 29. August 2011
Отчёт EAC об извлечении, выполненном 16. марта 2012, 7:40
The Ark / In Lust We Trust
Дисковод: PIONEER DVD-RW  DVR-218L   Adapter: 0  ID: 1
Режим чтения                 : Достоверность
Использование точного потока : Да
Отключение кэша аудио        : Да
Использование указателей C2  : Нет
Коррекция смещения при чтении                     : 6
Способность читать области Lead-in и Lead-out     : Нет
Заполнение пропущенных сэмплов тишиной            : Да
Удаление блоков с тишиной в начале и конце        : Нет
При вычислениях CRC использовались нулевые сэмплы : Да
Интерфейс                                         : Встроенный Win32-интерфейс для Win NT/2000
Выходной формат          : Пользовательский кодировщик
Выбранный битрейт        : 896 kBit/s
Качество                 : Высокий
Добавление ID3-тега      : Да
Утилита сжатия           : C:\Program Files\Exact Audio Copy\FLAC\FLAC.EXE
Дополнительные параметры : -6 -V -T "ARTIST=%artist%" -T "TITLE=%title%" -T "ALBUM=%albumtitle%" -T "DATE=%year%" -T "TRACKNUMBER=%tracknr%" -T "GENRE=%genre%" -T "COMMENT=%comment%" -T "BAND=%albuminterpret%" -T "ALBUMARTIST=%albuminterpret%" -T "COMPOSER=%composer%" %haslyrics%--tag-from-file=LYRICS="%lyricsfile%"%haslyrics% -T "DISCNUMBER=%cdnumber%" -T "TOTALDISCS=%totalcds%" -T "TOTALTRACKS=%numtracks%" %hascover%--picture="%coverfile%"%hascover% %source% -o %dest%
TOC извлечённого CD
     Трек |   Старт  | Длительность | Начальный сектор | Конечный сектор
    ---------------------------------------------------------------------
       1  |  0:00.00 |    3:38.02   |           0      |      16351
       2  |  3:38.02 |    3:22.34   |       16352      |      31535
       3  |  7:00.36 |    5:15.00   |       31536      |      55160
       4  | 12:15.36 |    4:32.27   |       55161      |      75587
       5  | 16:47.63 |    4:30.69   |       75588      |      95906
       6  | 21:18.57 |    1:06.11   |       95907      |     100867
       7  | 22:24.68 |    2:43.34   |      100868      |     113126
       8  | 25:08.27 |    3:16.37   |      113127      |     127863
       9  | 28:24.64 |    3:21.43   |      127864      |     142981
      10  | 31:46.32 |    8:08.34   |      142982      |     179615
      11  | 39:54.66 |    4:09.74   |      179616      |     198364
      12  | 46:36.65 |   27:21.10   |      209765      |     332849
Характеристики диапазона извлечения и сообщения об ошибках
Выбранный диапазон
     Имя файла C:\Users\Александр\Desktop\Torrent Downloads\The Ark\In Lust We Trust 2002\The Ark - In Lust We Trust.wav
     Пиковый уровень 98.9 %
     Скорость извлечения 1.7 X
     Качество диапазона 99.9 %
     CRC теста 7034DD3F
     CRC копии 7034DD3F
     Копирование... OK
Ошибок не произошло
AccurateRip: сводка
Трек  1  : извлечено точно (доверие 2)  [0F6B2754]  (AR v1)
Трек  2  : извлечено точно (доверие 4)  [6DF27C2C]  (AR v1)
Трек  3  : извлечено точно (доверие 2)  [EF5B3A15]  (AR v1)
Трек  4  : извлечено точно (доверие 3)  [83E45EBC]  (AR v1)
Трек  5  точность не определена (достоверность 4)  [8558934F], AccurateRip вернул [B6AF0F99]  (AR v2)
Трек  6  точность не определена (достоверность 4)  [881F7BF5], AccurateRip вернул [1171748D]  (AR v2)
Трек  7  : извлечено точно (доверие 3)  [455E7504]  (AR v1)
Трек  8  точность не определена (достоверность 4)  [CA7A9687], AccurateRip вернул [9903F462]  (AR v2)
Трек  9  точность не определена (достоверность 4)  [E63C951E], AccurateRip вернул [9F8335B0]  (AR v2)
Трек 10  точность не определена (достоверность 3)  [196D952A], AccurateRip вернул [8817F5B3]  (AR v2)
Трек 11  точность не определена (достоверность 2)  [A8368D31], AccurateRip вернул [D3961966]  (AR v2)
 5 трек(и) скопированы точно
 6 трек(и) не удалось проверить на точность
Некоторые треки не прошли проверку на точность
Конец отчёта
---- CUETools DB Plugin V2.1.3
[CTDB TOCID: 4oWIsaC8znQuT4EmJjEtvjqdKAw-] found, Submit result: 4oWIsaC8znQuT4EmJjEtvjqdKAw- has been uploaded
[c8a5c493] (1/2) No match
[09176dd5] (1/2) No match
Код:
REM GENRE Pop
REM DATE 2002
REM DISCID 9711560C
REM COMMENT "ExactAudioCopy v1.0b3"
PERFORMER "The Ark"
TITLE "In Lust We Trust"
FILE "The Ark - In Lust We Trust.flac" WAVE
  TRACK 01 AUDIO
    TITLE "Beauty Is The Beast "
    PERFORMER "The Ark"
    INDEX 01 00:00:00
  TRACK 02 AUDIO
    TITLE "Father Of A Son "
    PERFORMER "The Ark"
    INDEX 01 03:38:02
  TRACK 03 AUDIO
    TITLE "Tell Me This Night Is Over "
    PERFORMER "The Ark"
    INDEX 01 07:00:36
  TRACK 04 AUDIO
    TITLE "Calleth You, Cometh I "
    PERFORMER "The Ark"
    INDEX 01 12:15:36
  TRACK 05 AUDIO
    TITLE "A Virgin Like You"
    PERFORMER "The Ark"
    INDEX 01 16:47:63
  TRACK 06 AUDIO
    TITLE "Interlude"
    PERFORMER "The Ark"
    INDEX 01 21:18:57
  TRACK 07 AUDIO
    TITLE "Tired Of Being An Object?"
    PERFORMER "The Ark"
    INDEX 01 22:24:68
  TRACK 08 AUDIO
    TITLE "Disease"
    PERFORMER "The Ark"
    INDEX 01 25:08:27
  TRACK 09 AUDIO
    TITLE "Vendelay "
    PERFORMER "The Ark"
    INDEX 01 28:24:64
  TRACK 10 AUDIO
    TITLE "2000 Lightyears Of Darkness"
    PERFORMER "The Ark"
    INDEX 01 31:46:32
  TRACK 11 AUDIO
    TITLE "The Most Radical Thing To Do"
    PERFORMER "The Ark"
    INDEX 00 38:46:74
    INDEX 01 39:54:66
* Ola Salo (vocals and piano)
* (Mikael) Jepson (backing vocals and guitar)
* Martin Axén (backing vocals and guitar)
* Leari (Lars Ljungberg) (backing vocals and bass)
* Sylvester Schlegel (backing vocals and drums)
* Jens Andersson (keyboards and sound engineer)
Правила, инструкции, FAQ!!!
Торрент  Добавлен [26 мар 2019, 19:43] Скачать торрент Магнет ссылка
Скачать торрент
[ Размер 13.45 КБ / Просмотров 6 ]

Статус
Проверен 
 
Размер  322.94 МБ
Приватный: Нет (DHT включён)
.torrent скачан  0
 


     Отправить личное сообщение
   
Страница 1 из 1
Показать сообщения за:  Поле сортировки  
Начать новую тему Ответить на тему


Сейчас этот форум просматривают: нет зарегистрированных пользователей и гости: 0


Вы не можете начинать темы
Вы не можете отвечать на сообщения
Вы не можете редактировать свои сообщения
Вы не можете удалять свои сообщения
Вы не можете добавлять вложения

Перейти:  
cron