Начать новую тему Ответить на тему
Статистика раздачи
Размер: 306.96 МБ | Добавлен: 26 мар 2019, 20:52 | Скачали: 0
Сидеров: 0  [0 байт/сек]    Личеров: 0  [0 байт/сек]
Пред. тема | След. тема 

Автор
Сообщение

СообщениеДобавлено: 26 мар 2019, 20:52 

Ответить с цитатой 

Bay City Rollers - Rollin' (1974)
Жанр: Pop Rock/Glam Rock
Год выпуска диска: 2004
Производитель диска: EU
Аудио кодек: APE
Тип рипа: image+.cue
Битрейт аудио: lossless
Продолжительность: 50:04
Трэклист:
1. Shang A Lang 3:04
2. Give It To Me Now 3:46
3. Angel Angel 2:25
4. Be My Baby 3:25
5. Just A Little Love 2:53
6. Remember (Sha La La La) 2:31
7. Saturday Night 2:54
8. Ain't It Strange 2:08
9. Please Stay 3:51
10. Jenny Gotta Dance 3:04
11. There Goes My Baby 3:16
12. Summerlove Sensation 3:11
Bonus tracks
13. Are You Ready For That Rock And Roll (B-side of Shang A Lang) 3:26
14. Bringing Back The Good Times (B-side of Sumerlove Sensation) 3:39
15. Bye Bye Barbara (B-side of Remember) 2:34
16. Hey C.B. (B-side of Saturday Night) 3:02
Exact Audio Copy V0.99 prebeta 3 from 28. July 2007
Отчёт EAC об извлечении, выполненном 1. февраля 2010, 21:41
Bay City Rollers / Rollin'
Дисковод: PLEXTOR DVDR PX-755A Adapter: 2 ID: 0
Режим чтения : Достоверность
Использование точного потока : Да
Отключение кэша аудио : Да
Использование указателей C2 : Нет
Коррекция смещения при чтении : 30
Способность читать области Lead-in и Lead-out : Да
Заполнение пропущенных сэмплов тишиной : Да
Удаление блоков с тишиной в начале и конце : Нет
При вычислениях CRC использовались нулевые сэмплы : Да
Интерфейс : Встроенный Win32-интерфейс для Win NT/2000
Выходной формат : Monkey's Audio Lossless Encoder v3.99 DLL
Формат сэмплов : Normal Lossless Compression
TOC извлечённого CD
Трек | Старт | Длительность | Начальный сектор | Конечный сектор
---------------------------------------------------------------------
1 | 0:00.00 | 3:07.43 | 0 | 14067
2 | 3:07.43 | 3:50.61 | 14068 | 31378
3 | 6:58.29 | 2:28.14 | 31379 | 42492
4 | 9:26.43 | 3:27.66 | 42493 | 58083
5 | 12:54.34 | 2:56.43 | 58084 | 71326
6 | 15:51.02 | 2:33.71 | 71327 | 82872
7 | 18:24.73 | 2:57.21 | 82873 | 96168
8 | 21:22.19 | 2:11.46 | 96169 | 106039
9 | 23:33.65 | 3:55.52 | 106040 | 123716
10 | 27:29.42 | 3:07.50 | 123717 | 137791
11 | 30:37.17 | 3:19.10 | 137792 | 152726
12 | 33:56.27 | 3:14.05 | 152727 | 167281
13 | 37:10.32 | 3:28.48 | 167282 | 182929
14 | 40:39.05 | 3:43.03 | 182930 | 199657
15 | 44:22.08 | 2:37.19 | 199658 | 211451
16 | 46:59.27 | 3:02.72 | 211452 | 225173
Характеристики диапазона извлечения и сообщения об ошибках
Выбранный диапазон
Имя файла D:\AUDIO\Bay City Rollers - Rollin'.ape
Пиковый уровень 97.7 %
Качество диапазона 100.0 %
CRC теста 63D4F098
CRC копии 63D4F098
Копирование... OK
Ошибок не произошло
AccurateRip: сводка
Трек 1 точное извлечение (доверие 3) [D6F0E9A7]
Трек 2 точное извлечение (доверие 3) [FA3E73BC]
Трек 3 точное извлечение (доверие 3) [94DBBE0F]
Трек 4 точное извлечение (доверие 3) [F16249AA]
Трек 5 точное извлечение (доверие 3) [18D93EAB]
Трек 6 точное извлечение (доверие 3) [64A7A8ED]
Трек 7 точное извлечение (доверие 3) [64CA2964]
Трек 8 точное извлечение (доверие 3) [1560FE2A]
Трек 9 точное извлечение (доверие 3) [6048A07D]
Трек 10 точное извлечение (доверие 3) [EAED7FC6]
Трек 11 точное извлечение (доверие 3) [556D524E]
Трек 12 точное извлечение (доверие 3) [983EEB0E]
Трек 13 точное извлечение (доверие 3) [D2DFAC7A]
Трек 14 точное извлечение (доверие 3) [5EEEB979]
Трек 15 точное извлечение (доверие 3) [F0871BFE]
Трек 16 точное извлечение (доверие 3) [74F8E0C5]
Все треки извлечены точно
Конец отчёта
REM GENRE Pop
REM DATE 1974
REM DISCID D60BBA10
REM COMMENT "ExactAudioCopy v0.99pb3"
PERFORMER "Bay City Rollers"
TITLE "Rollin'"
FILE "Bay City Rollers - Rollin'.ape" WAVE
TRACK 01 AUDIO
TITLE "Shang A Lang"
PERFORMER "Bay City Rollers"
ISRC USAR10000005
INDEX 01 00:00:00
TRACK 02 AUDIO
TITLE "Give It To Me Now"
PERFORMER "Bay City Rollers"
ISRC USAR10400165
INDEX 00 03:04:46
INDEX 01 03:07:43
TRACK 03 AUDIO
TITLE "Angel Angel"
PERFORMER "Bay City Rollers"
ISRC USAR10400171
INDEX 00 06:54:23
INDEX 01 06:58:29
TRACK 04 AUDIO
TITLE "Be My Baby"
PERFORMER "Bay City Rollers"
ISRC USAR17400159
INDEX 00 09:23:56
INDEX 01 09:26:43
TRACK 05 AUDIO
TITLE "Just A Little Love"
PERFORMER "Bay City Rollers"
ISRC USAR10300479
INDEX 00 12:51:51
INDEX 01 12:54:34
TRACK 06 AUDIO
TITLE "Remember (Sha La La La)"
PERFORMER "Bay City Rollers"
ISRC USAR19500187
INDEX 00 15:48:14
INDEX 01 15:51:02
TRACK 07 AUDIO
TITLE "Saturday Night"
PERFORMER "Bay City Rollers"
ISRC USAR17500148
INDEX 00 18:22:08
INDEX 01 18:24:73
TRACK 08 AUDIO
TITLE "Ainґt It Strange"
PERFORMER "Bay City Rollers"
ISRC USAR10400172
INDEX 00 21:19:41
INDEX 01 21:22:19
TRACK 09 AUDIO
TITLE "Please Stay"
PERFORMER "Bay City Rollers"
ISRC USAR10300480
INDEX 00 23:31:14
INDEX 01 23:33:65
TRACK 10 AUDIO
TITLE "Jenny Gotta Dance"
PERFORMER "Bay City Rollers"
ISRC USAR10400176
INDEX 00 27:25:59
INDEX 01 27:29:42
TRACK 11 AUDIO
TITLE "There Goes My Baby"
PERFORMER "Bay City Rollers"
ISRC USAR19500184
INDEX 00 30:33:64
INDEX 01 30:37:17
TRACK 12 AUDIO
TITLE "Summerlove Sensation"
PERFORMER "Bay City Rollers"
ISRC USAR10000006
INDEX 00 33:53:32
INDEX 01 33:56:27
TRACK 13 AUDIO
TITLE "Are You Ready For That Rock And Roll (B-Side of ''Shang A Lang'')"
PERFORMER "Bay City Rollers"
ISRC USAR17400114
INDEX 00 37:07:56
INDEX 01 37:10:32
TRACK 14 AUDIO
TITLE "Bringing Back The Good Times (B-Side of ''Sumerlove Sensation'')"
PERFORMER "Bay City Rollers"
ISRC USAR17400116
INDEX 00 40:36:50
INDEX 01 40:39:05
TRACK 15 AUDIO
TITLE "Bye Bye Barbara (B-Side of ''Remember'')"
PERFORMER "Bay City Rollers"
ISRC USAR17300109
INDEX 00 44:18:69
INDEX 01 44:22:08
TRACK 16 AUDIO
TITLE "Hey C.B. (B-Side of ''Saturday Night'')"
PERFORMER "Bay City Rollers"
ISRC USAR10400177
INDEX 00 46:56:45
INDEX 01 46:59:27
ВНИМАНИЕ: Материал выложен ИСКЛЮЧИТЕЛЬНО для ознакомления, так что не забудьте удалить его с жёсткого диска после прослушивания, пойти в магазин и купить лицензионный CD!
Доп. информация: Рип сделан с CD из моей коллекции (This compilation BMG UK & Ireland Ltd. 82876 608202).
Правила, инструкции, FAQ!!!
Торрент  Добавлен [26 мар 2019, 20:52] Скачать торрент Магнет ссылка
Скачать торрент
[ Размер 12.93 КБ / Просмотров 3 ]

Статус
Проверен 
 
Размер  306.96 МБ
Приватный: Нет (DHT включён)
.torrent скачан  0
 


     Отправить личное сообщение
   
Страница 1 из 1
Показать сообщения за:  Поле сортировки  
Начать новую тему Ответить на тему


Сейчас этот форум просматривают: нет зарегистрированных пользователей и гости: 0


Вы не можете начинать темы
Вы не можете отвечать на сообщения
Вы не можете редактировать свои сообщения
Вы не можете удалять свои сообщения
Вы не можете добавлять вложения

Перейти:  
cron