Начать новую тему Ответить на тему
Статистика раздачи
Размер: 328.75 МБ | Добавлен: 26 мар 2019, 20:05 | Скачали: 0
Сидеров: 8  [0 байт/сек]    Личеров: 0  [0 байт/сек]
Пред. тема | След. тема 

Автор
Сообщение

СообщениеДобавлено: 26 мар 2019, 20:05 

Ответить с цитатой 

Bay City Rollers / Once Upon A Star
Жанр: Pop Rock / Glam Rock
Страна-производитель диска: EU
Год издания диска: 1975
Издатель (лейбл): BMG
Номер по каталогу: 82876 608212
Страна: Scotland
Аудио кодек: FLAC (*.flac)
Тип рипа: tracks+.cue
Битрейт аудио: lossless
Продолжительность: 51.15
Источник (релизер): Собственный рип
Наличие сканов в содержимом раздачи: да
Треклист:
1. Bye Bye Baby
2. Disco Kid
3. Belle Jeane
4. When Will You Be Mine ?
5. Angel Baby
6. Keep On Dancing
7. Once Upon A Star
8. Let's Go
9. Marlina
10. My Teenage Heart
11. Rock And Roll Honey Moon
12. Hey ! Beautiful Dreamer
13. All Of Me Loves All Of You (Bonus Track)
14. Bump (B-Side Of All Of Me Loves All Of You) (Bonus Track)
15. Keep On Dancing (1971 Single Version) (Bonus Track)
16. Alright (Bonus Track)
17. It's For You (B-Side Of Bye Bye Baby) (Bonus Track)
Код:
Exact Audio Copy V0.99 prebeta 5 from 4. May 2009
EAC extraction logfile from 11. March 2011, 16:58
Bay City Rollers / Once Upon A Star
Used drive  : Optiarc DVD RW AD-7241S   Adapter: 2  ID: 0
Read mode               : Secure
Utilize accurate stream : Yes
Defeat audio cache      : Yes
Make use of C2 pointers : No
Read offset correction                      : 48
Overread into Lead-In and Lead-Out          : No
Fill up missing offset samples with silence : Yes
Delete leading and trailing silent blocks   : No
Null samples used in CRC calculations       : Yes
Used interface                              : Native Win32 interface for Win NT & 2000
Gap handling                                : Appended to previous track
Used output format              : User Defined Encoder
Selected bitrate                : 768 kBit/s
Quality                         : High
Add ID3 tag                     : No
Command line compressor         : C:\Program Files\Exact Audio Copy\Flac\flac.exe
Additional command line options : -8 -V -T "ARTIST=%a" -T "TITLE=%t" -T "ALBUM=%g" -T "DATE=%y" -T "TRACKNUMBER=%n" -T "GENRE=%m" -T "COMMENT=EAC FLAC -8" %s
TOC of the extracted CD
     Track |   Start  |  Length  | Start sector | End sector
    ---------------------------------------------------------
        1  |  0:00.00 |  2:50.27 |         0    |    12776
        2  |  2:50.27 |  3:16.24 |     12777    |    27500
        3  |  6:06.51 |  4:01.11 |     27501    |    45586
        4  | 10:07.62 |  2:32.57 |     45587    |    57043
        5  | 12:40.44 |  3:52.12 |     57044    |    74455
        6  | 16:32.56 |  2:42.06 |     74456    |    86611
        7  | 19:14.62 |  3:00.28 |     86612    |   100139
        8  | 22:15.15 |  3:28.08 |    100140    |   115747
        9  | 25:43.23 |  3:01.02 |    115748    |   129324
       10  | 28:44.25 |  2:31.54 |    129325    |   140703
       11  | 31:16.04 |  2:45.09 |    140704    |   153087
       12  | 34:01.13 |  3:52.14 |    153088    |   170501
       13  | 37:53.27 |  3:07.20 |    170502    |   184546
       14  | 41:00.47 |  2:35.03 |    184547    |   196174
       15  | 43:35.50 |  2:10.18 |    196175    |   205942
       16  | 45:45.68 |  2:07.27 |    205943    |   215494
       17  | 47:53.20 |  3:26.06 |    215495    |   230950
Track  1
     Filename D:\EAC\01-Bay City Rollers-Bye Bye Baby.wav
     Pre-gap length  0:00:02.00
     Peak level 97.7 %
     Track quality 99.9 %
     Test CRC 5155B660
     Copy CRC 5155B660
     Accurately ripped (confidence 2)  [7BCF115E]
     Copy OK
Track  2
     Filename D:\EAC\02-Bay City Rollers-The Disco Kid.wav
     Peak level 94.2 %
     Track quality 100.0 %
     Test CRC 9BD4588B
     Copy CRC 9BD4588B
     Accurately ripped (confidence 2)  [A76C7A45]
     Copy OK
Track  3
     Filename D:\EAC\03-Bay City Rollers-La Belle Jeane.wav
     Peak level 93.5 %
     Track quality 100.0 %
     Test CRC A4DE96A1
     Copy CRC A4DE96A1
     Accurately ripped (confidence 2)  [9EDDC2B3]
     Copy OK
Track  4
     Filename D:\EAC\04-Bay City Rollers-When Will You Be Mine .wav
     Peak level 94.2 %
     Track quality 99.9 %
     Test CRC B6EE6770
     Copy CRC B6EE6770
     Accurately ripped (confidence 2)  [497B3124]
     Copy OK
Track  5
     Filename D:\EAC\05-Bay City Rollers-Angel Baby.wav
     Peak level 97.3 %
     Track quality 100.0 %
     Test CRC B4E08B2F
     Copy CRC B4E08B2F
     Accurately ripped (confidence 2)  [A3A28B72]
     Copy OK
Track  6
     Filename D:\EAC\06-Bay City Rollers-Keep On Dancing.wav
     Peak level 73.4 %
     Track quality 100.0 %
     Test CRC 219E5930
     Copy CRC 219E5930
     Accurately ripped (confidence 2)  [2353F517]
     Copy OK
Track  7
     Filename D:\EAC\07-Bay City Rollers-Once Upon A Star.wav
     Peak level 90.1 %
     Track quality 100.0 %
     Test CRC D7C4C170
     Copy CRC D7C4C170
     Accurately ripped (confidence 2)  [4E6E4198]
     Copy OK
Track  8
     Filename D:\EAC\08-Bay City Rollers-Let's Go.wav
     Peak level 97.0 %
     Track quality 100.0 %
     Test CRC B0AC20FD
     Copy CRC B0AC20FD
     Accurately ripped (confidence 2)  [938D535C]
     Copy OK
Track  9
     Filename D:\EAC\09-Bay City Rollers-Marlina.wav
     Peak level 71.8 %
     Track quality 100.0 %
     Test CRC 99546155
     Copy CRC 99546155
     Accurately ripped (confidence 2)  [54BF9599]
     Copy OK
Track 10
     Filename D:\EAC\10-Bay City Rollers-My Teenage Heart.wav
     Peak level 83.5 %
     Track quality 100.0 %
     Test CRC 6F997426
     Copy CRC 6F997426
     Accurately ripped (confidence 2)  [BB6E7B96]
     Copy OK
Track 11
     Filename D:\EAC\11-Bay City Rollers-Rock 'N Roll Honeymoon.wav
     Peak level 91.7 %
     Track quality 100.0 %
     Test CRC 66CE5EBB
     Copy CRC 66CE5EBB
     Accurately ripped (confidence 2)  [75B6E172]
     Copy OK
Track 12
     Filename D:\EAC\12-Bay City Rollers-Hey! Beautiful Dreamer.wav
     Peak level 80.1 %
     Track quality 100.0 %
     Test CRC 347901A7
     Copy CRC 347901A7
     Accurately ripped (confidence 2)  [93ED63B4]
     Copy OK
Track 13
     Filename D:\EAC\13-Bay City Rollers-All Of Me Loves All Of You (1974 Bonus Track).wav
     Peak level 77.4 %
     Track quality 99.9 %
     Test CRC 44B690DA
     Copy CRC 44B690DA
     Accurately ripped (confidence 2)  [77244903]
     Copy OK
Track 14
     Filename D:\EAC\14-Bay City Rollers-The Bump (B-Side of ''All Of Me Loves All Of You'').wav
     Peak level 95.1 %
     Track quality 99.9 %
     Test CRC 95EE6BF8
     Copy CRC 95EE6BF8
     Accurately ripped (confidence 2)  [F015B91F]
     Copy OK
Track 15
     Filename D:\EAC\15-Bay City Rollers-Keep On Dancing (1971 Single Version).wav
     Peak level 86.9 %
     Track quality 100.0 %
     Test CRC 9B8F2582
     Copy CRC 9B8F2582
     Accurately ripped (confidence 2)  [A0756CCD]
     Copy OK
Track 16
     Filename D:\EAC\16-Bay City Rollers-Alright (1971 Bonus Track).wav
     Peak level 86.9 %
     Track quality 100.0 %
     Test CRC 928C1251
     Copy CRC 928C1251
     Accurately ripped (confidence 2)  [E44DFF8A]
     Copy OK
Track 17
     Filename D:\EAC\17-Bay City Rollers-It's For You (B-Side of ''Bye Bye Baby'' - 1975).wav
     Peak level 73.3 %
     Track quality 100.0 %
     Test CRC 3A5D6A95
     Copy CRC 3A5D6A95
     Accurately ripped (confidence 2)  [25BB53DA]
     Copy OK
All tracks accurately ripped
No errors occurred
End of status report
Код:
REM GENRE Pop
REM DATE 1975
REM DISCID 050C0711
REM COMMENT "ExactAudioCopy v0.99pb5"
PERFORMER "Bay City Rollers"
TITLE "Once Upon A Star"
FILE "01-Bay City Rollers-Bye Bye Baby.wav" WAVE
  TRACK 01 AUDIO
    TITLE "Bye Bye Baby"
    PERFORMER "Bay City Rollers"
    INDEX 01 00:00:00
FILE "02-Bay City Rollers-The Disco Kid.wav" WAVE
  TRACK 02 AUDIO
    TITLE "The Disco Kid"
    PERFORMER "Bay City Rollers"
    INDEX 01 00:00:00
FILE "03-Bay City Rollers-La Belle Jeane.wav" WAVE
  TRACK 03 AUDIO
    TITLE "La Belle Jeane"
    PERFORMER "Bay City Rollers"
    INDEX 01 00:00:00
FILE "04-Bay City Rollers-When Will You Be Mine .wav" WAVE
  TRACK 04 AUDIO
    TITLE "When Will You Be Mine?"
    PERFORMER "Bay City Rollers"
    INDEX 01 00:00:00
FILE "05-Bay City Rollers-Angel Baby.wav" WAVE
  TRACK 05 AUDIO
    TITLE "Angel Baby"
    PERFORMER "Bay City Rollers"
    INDEX 01 00:00:00
FILE "06-Bay City Rollers-Keep On Dancing.wav" WAVE
  TRACK 06 AUDIO
    TITLE "Keep On Dancing"
    PERFORMER "Bay City Rollers"
    INDEX 01 00:00:00
FILE "07-Bay City Rollers-Once Upon A Star.wav" WAVE
  TRACK 07 AUDIO
    TITLE "Once Upon A Star"
    PERFORMER "Bay City Rollers"
    INDEX 01 00:00:00
FILE "08-Bay City Rollers-Let's Go.wav" WAVE
  TRACK 08 AUDIO
    TITLE "Let's Go"
    PERFORMER "Bay City Rollers"
    INDEX 01 00:00:00
FILE "09-Bay City Rollers-Marlina.wav" WAVE
  TRACK 09 AUDIO
    TITLE "Marlina"
    PERFORMER "Bay City Rollers"
    INDEX 01 00:00:00
FILE "10-Bay City Rollers-My Teenage Heart.wav" WAVE
  TRACK 10 AUDIO
    TITLE "My Teenage Heart"
    PERFORMER "Bay City Rollers"
    INDEX 01 00:00:00
FILE "11-Bay City Rollers-Rock 'N Roll Honeymoon.wav" WAVE
  TRACK 11 AUDIO
    TITLE "Rock 'N Roll Honeymoon"
    PERFORMER "Bay City Rollers"
    INDEX 01 00:00:00
FILE "12-Bay City Rollers-Hey! Beautiful Dreamer.wav" WAVE
  TRACK 12 AUDIO
    TITLE "Hey! Beautiful Dreamer"
    PERFORMER "Bay City Rollers"
    INDEX 01 00:00:00
FILE "13-Bay City Rollers-All Of Me Loves All Of You (1974 Bonus Track).wav" WAVE
  TRACK 13 AUDIO
    TITLE "All Of Me Loves All Of You (1974 Bonus Track)"
    PERFORMER "Bay City Rollers"
    INDEX 01 00:00:00
FILE "14-Bay City Rollers-The Bump (B-Side of ''All Of Me Loves All Of You'').wav" WAVE
  TRACK 14 AUDIO
    TITLE "The Bump (B-Side of ''All Of Me Loves All Of You'')"
    PERFORMER "Bay City Rollers"
    INDEX 01 00:00:00
FILE "15-Bay City Rollers-Keep On Dancing (1971 Single Version).wav" WAVE
  TRACK 15 AUDIO
    TITLE "Keep On Dancing (1971 Single Version)"
    PERFORMER "Bay City Rollers"
    INDEX 01 00:00:00
FILE "16-Bay City Rollers-Alright (1971 Bonus Track).wav" WAVE
  TRACK 16 AUDIO
    TITLE "Alright (1971 Bonus Track)"
    PERFORMER "Bay City Rollers"
    INDEX 01 00:00:00
FILE "17-Bay City Rollers-It's For You (B-Side of ''Bye Bye Baby'' - 1975).wav" WAVE
  TRACK 17 AUDIO
    TITLE "It's For You (B-Side of ''Bye Bye Baby'' - 1975)"
    PERFORMER "Bay City Rollers"
    INDEX 01 00:00:00
Правила, инструкции, FAQ!!!
Торрент  Добавлен [26 мар 2019, 20:05] Скачать торрент Магнет ссылка
Скачать торрент
[ Размер 15.1 КБ / Просмотров 1 ]

Статус
Проверен 
 
Размер  328.75 МБ
Приватный: Нет (DHT включён)
.torrent скачан  0
 


     Отправить личное сообщение
   
Страница 1 из 1
Показать сообщения за:  Поле сортировки  
Начать новую тему Ответить на тему


Сейчас этот форум просматривают: нет зарегистрированных пользователей и гости: 0


Вы не можете начинать темы
Вы не можете отвечать на сообщения
Вы не можете редактировать свои сообщения
Вы не можете удалять свои сообщения
Вы не можете добавлять вложения

Перейти:  
cron