Начать новую тему Ответить на тему
Статистика раздачи
Размер: 374.39 МБ | Добавлен: 26 мар 2019, 19:12 | Скачали: 0
Сидеров: 0  [0 байт/сек]    Личеров: 0  [0 байт/сек]
Пред. тема | След. тема 

Автор
Сообщение

СообщениеДобавлено: 26 мар 2019, 19:12 

Ответить с цитатой 

Girl Overboard / Go
Жанр: Pop Rock
Носитель: CD
Страна-производитель диска (релиза): Australia
Год издания: 1992
Издатель (лейбл): BMG
Номер по каталогу: 74321106322
Страна исполнителя (группы): Australia
Аудиокодек: FLAC (*.flac)
Тип рипа: image+.cue
Битрейт аудио: lossless
Продолжительность: 00:48:07
Источник (релизер): CD
Наличие сканов в содержимом раздачи: да
Треклист:
1. Your Love 3:51
2. Way On The Mountain 3:16
3. Chain Of Fools 3:26
4. Love In Her Game 4:16
5. Stranger's Kiss 4:26
6. If You're Going To Leave Tonight 4:37
7. If Love Were The Moon 3:37
8. L.A. Girls 3:19
9. Peace And Hope 4:33
10. Sylvia Said 4:24
11. Am I Feeling Blue 2:59
12. Jackie 5:24
Код:
Exact Audio Copy V1.1 from 23. June 2015
EAC extraction logfile from 20. January 2016, 17:27
Girl Overboard / Go
Used drive  : Optiarc DVD RW AD-5280S   Adapter: 1  ID: 0
Read mode               : Secure
Utilize accurate stream : Yes
Defeat audio cache      : Yes
Make use of C2 pointers : No
Read offset correction                      : 48
Overread into Lead-In and Lead-Out          : No
Fill up missing offset samples with silence : Yes
Delete leading and trailing silent blocks   : No
Null samples used in CRC calculations       : Yes
Used interface                              : Native Win32 interface for Win NT & 2000
Used output format              : User Defined Encoder
Selected bitrate                : 896 kBit/s
Quality                         : High
Add ID3 tag                     : No
Command line compressor         : C:\Program Files (x86)\Exact Audio Copy\Flac\flac.exe
Additional command line options : -V -8 -T "Date=%year%" -T "Genre=%genre%" %source%
TOC of the extracted CD
     Track |   Start  |  Length  | Start sector | End sector
    ---------------------------------------------------------
        1  |  0:00.00 |  3:50.65 |         0    |    17314
        2  |  3:50.65 |  3:15.45 |     17315    |    31984
        3  |  7:06.35 |  3:25.47 |     31985    |    47406
        4  | 10:32.07 |  4:16.20 |     47407    |    66626
        5  | 14:48.27 |  4:25.63 |     66627    |    86564
        6  | 19:14.15 |  4:37.12 |     86565    |   107351
        7  | 23:51.27 |  3:37.10 |    107352    |   123636
        8  | 27:28.37 |  3:18.63 |    123637    |   138549
        9  | 30:47.25 |  4:33.22 |    138550    |   159046
       10  | 35:20.47 |  4:23.63 |    159047    |   178834
       11  | 39:44.35 |  2:58.45 |    178835    |   192229
       12  | 42:43.05 |  5:23.67 |    192230    |   216521
Range status and errors
Selected range
     Filename F:\МУЗЫКА\Girl Overboard - Go 1992\Girl Overboard - Go.wav
     Peak level 100.0 %
     Extraction speed 3.9 X
     Range quality 100.0 %
     Test CRC E9B55DA7
     Copy CRC E9B55DA7
     Copy OK
No errors occurred
AccurateRip summary
Track  1  accurately ripped (confidence 1)  [1CC19BB1]  (AR v1)
Track  2  accurately ripped (confidence 1)  [125D9DC0]  (AR v1)
Track  3  accurately ripped (confidence 1)  [C8D9EC37]  (AR v1)
Track  4  accurately ripped (confidence 1)  [91159A74]  (AR v1)
Track  5  accurately ripped (confidence 1)  [9371006A]  (AR v1)
Track  6  accurately ripped (confidence 1)  [1D2137EB]  (AR v1)
Track  7  accurately ripped (confidence 1)  [7EC066BD]  (AR v1)
Track  8  accurately ripped (confidence 1)  [57C8ACD4]  (AR v1)
Track  9  accurately ripped (confidence 1)  [3AECBD5C]  (AR v1)
Track 10  accurately ripped (confidence 1)  [4122F745]  (AR v1)
Track 11  accurately ripped (confidence 1)  [AC62F605]  (AR v1)
Track 12  accurately ripped (confidence 1)  [91EFFF4C]  (AR v1)
All tracks accurately ripped
End of status report
---- CUETools DB Plugin V2.1.6
[CTDB TOCID: 6sRKKVFxLG4nG0CDy5aJvyvL8e8-] found
Submit result: 6sRKKVFxLG4nG0CDy5aJvyvL8e8- has been confirmed
Track | CTDB Status
  1   | (1/1) Accurately ripped
  2   | (1/1) Accurately ripped
  3   | (1/1) Accurately ripped
  4   | (1/1) Accurately ripped
  5   | (1/1) Accurately ripped
  6   | (1/1) Accurately ripped
  7   | (1/1) Accurately ripped
  8   | (1/1) Accurately ripped
  9   | (1/1) Accurately ripped
 10   | (1/1) Accurately ripped
 11   | (1/1) Accurately ripped
 12   | (1/1) Accurately ripped
==== Log checksum 9D0A1313CCDBF870A53251CA44B11BBA47EA7C19E11E6553B9C4BEE235C9F9F7 ====
Australian Rock band from the late 80's fronted by Lisa Schouw.
Studio Albums:
1989 - Paint A Picture
1992 - Go
Правила, инструкции, FAQ!!!
Торрент  Добавлен [26 мар 2019, 19:12] Скачать торрент Магнет ссылка
Скачать торрент
[ Размер 15.51 КБ / Просмотров 0 ]

Статус
Проверен 
 
Размер  374.39 МБ
Приватный: Нет (DHT включён)
.torrent скачан  0
 


     Отправить личное сообщение
   
Страница 1 из 1
Показать сообщения за:  Поле сортировки  
Начать новую тему Ответить на тему


Сейчас этот форум просматривают: нет зарегистрированных пользователей и гости: 0


Вы не можете начинать темы
Вы не можете отвечать на сообщения
Вы не можете редактировать свои сообщения
Вы не можете удалять свои сообщения
Вы не можете добавлять вложения

Перейти:  
cron