Начать новую тему Ответить на тему
Статистика раздачи
Размер: 292.29 МБ | Добавлен: 26 мар 2019, 20:25 | Скачали: 0
Сидеров: 0  [0 байт/сек]    Личеров: 0  [0 байт/сек]
Пред. тема | След. тема 

Автор
Сообщение

СообщениеДобавлено: 26 мар 2019, 20:25 

Ответить с цитатой 

The Winyls - Honey And Lime
Жанр: Pop Rock, Garage Rock
Страна-производитель диска: RU
Год издания диска: 2008
Издатель (лейбл): Hype Records/Soyuz Music
Номер по каталогу: none
Страна: Finland
Аудио кодек: FLAC (*.flac)
Тип рипа: tracks+.cue
Битрейт аудио: lossless
Продолжительность: 00:40:09
Источник (релизер): Sket4er
Наличие сканов в содержимом раздачи:
Треклист:
01. See Me Alive 03:10
02. I Know 03:26
03. Keep Rock 'N' Roll Alive 03:06
04. Would You Believe 02:44
05. What If 03:38
06. Loser's Blues 02:50
07. Honey & Lime 03:29
08. If You Ever 03:43
09. Loose Talk 03:45
10. Now 02:36
11. You, Me & Rock 'N' Roll 03:08
12. Little We Can Do 04:35
Код:
Exact Audio Copy V1.1 from 23. June 2015
EAC extraction logfile from 16. January 2017, 18:51
The Winyls / Honey And Lime
Used drive  : TSSTcorpCDDVDW SH-224DB   Adapter: 1  ID: 0
Read mode               : Secure
Utilize accurate stream : Yes
Defeat audio cache      : Yes
Make use of C2 pointers : No
Read offset correction                      : 6
Overread into Lead-In and Lead-Out          : No
Fill up missing offset samples with silence : Yes
Delete leading and trailing silent blocks   : No
Null samples used in CRC calculations       : Yes
Used interface                              : Native Win32 interface for Win NT & 2000
Gap handling                                : Appended to previous track
Used output format              : User Defined Encoder
Selected bitrate                : 1024 kBit/s
Quality                         : High
Add ID3 tag                     : No
Command line compressor         : C:\Program Files (x86)\Exact Audio Copy\win64\flac.exe
Additional command line options : -8 -V -T "ARTIST=%artist%" -T "TITLE=%title%" -T "ALBUM=%albumtitle%" -T "DATE=%year%" -T "TRACKNUMBER=%tracknr%" -T "GENRE=%genre%" -T "COMMENT=%comment%" %source% -o %dest%
TOC of the extracted CD
     Track |   Start  |  Length  | Start sector | End sector
    ---------------------------------------------------------
        1  |  0:00.00 |  3:10.04 |         0    |    14253
        2  |  3:10.04 |  3:25.43 |     14254    |    29671
        3  |  6:35.47 |  3:06.03 |     29672    |    43624
        4  |  9:41.50 |  2:44.29 |     43625    |    55953
        5  | 12:26.04 |  3:37.38 |     55954    |    72266
        6  | 16:03.42 |  2:50.20 |     72267    |    85036
        7  | 18:53.62 |  3:29.31 |     85037    |   100742
        8  | 22:23.18 |  3:42.68 |    100743    |   117460
        9  | 26:06.11 |  3:44.64 |    117461    |   134324
       10  | 29:51.00 |  2:35.44 |    134325    |   145993
       11  | 32:26.44 |  3:07.49 |    145994    |   160067
       12  | 35:34.18 |  4:34.53 |    160068    |   180670
Track  1
     Filename C:\Sket4er\The Winyls – Honey And Lime (2008)\01 See Me Alive.wav
     Pre-gap length  0:00:02.00
     Peak level 100.0 %
     Extraction speed 1.6 X
     Track quality 100.0 %
     Test CRC DE9399E3
     Copy CRC DE9399E3
     Track not present in AccurateRip database
     Copy OK
Track  2
     Filename C:\Sket4er\The Winyls – Honey And Lime (2008)\02 I Know.wav
     Peak level 100.0 %
     Extraction speed 1.8 X
     Track quality 100.0 %
     Test CRC EF91F70D
     Copy CRC EF91F70D
     Track not present in AccurateRip database
     Copy OK
Track  3
     Filename C:\Sket4er\The Winyls – Honey And Lime (2008)\03 Keep Rock 'N' Roll Alive.wav
     Peak level 100.0 %
     Extraction speed 1.9 X
     Track quality 100.0 %
     Test CRC 7A8E404D
     Copy CRC 7A8E404D
     Track not present in AccurateRip database
     Copy OK
Track  4
     Filename C:\Sket4er\The Winyls – Honey And Lime (2008)\04 Would You Believe.wav
     Pre-gap length  0:00:01.27
     Peak level 100.0 %
     Extraction speed 2.0 X
     Track quality 100.0 %
     Test CRC 3273BF86
     Copy CRC 3273BF86
     Track not present in AccurateRip database
     Copy OK
Track  5
     Filename C:\Sket4er\The Winyls – Honey And Lime (2008)\05 What If.wav
     Pre-gap length  0:00:01.35
     Peak level 99.9 %
     Extraction speed 2.2 X
     Track quality 100.0 %
     Test CRC 981BE383
     Copy CRC 981BE383
     Track not present in AccurateRip database
     Copy OK
Track  6
     Filename C:\Sket4er\The Winyls – Honey And Lime (2008)\06 Loser's Blues.wav
     Peak level 100.0 %
     Extraction speed 2.2 X
     Track quality 100.0 %
     Test CRC A7F3144B
     Copy CRC A7F3144B
     Track not present in AccurateRip database
     Copy OK
Track  7
     Filename C:\Sket4er\The Winyls – Honey And Lime (2008)\07 Honey & Lime.wav
     Peak level 100.0 %
     Extraction speed 2.4 X
     Track quality 100.0 %
     Test CRC 50457B57
     Copy CRC 50457B57
     Track not present in AccurateRip database
     Copy OK
Track  8
     Filename C:\Sket4er\The Winyls – Honey And Lime (2008)\08 If You Ever.wav
     Peak level 97.2 %
     Extraction speed 2.6 X
     Track quality 100.0 %
     Test CRC 344E738D
     Copy CRC 344E738D
     Track not present in AccurateRip database
     Copy OK
Track  9
     Filename C:\Sket4er\The Winyls – Honey And Lime (2008)\09 Loose Talk.wav
     Peak level 100.0 %
     Extraction speed 2.7 X
     Track quality 100.0 %
     Test CRC 61B3F541
     Copy CRC 61B3F541
     Track not present in AccurateRip database
     Copy OK
Track 10
     Filename C:\Sket4er\The Winyls – Honey And Lime (2008)\10 Now.wav
     Peak level 100.0 %
     Extraction speed 2.6 X
     Track quality 100.0 %
     Test CRC 51EC64EB
     Copy CRC 51EC64EB
     Track not present in AccurateRip database
     Copy OK
Track 11
     Filename C:\Sket4er\The Winyls – Honey And Lime (2008)\11 You, Me & Rock 'N' Roll.wav
     Peak level 100.0 %
     Extraction speed 2.8 X
     Track quality 100.0 %
     Test CRC 19640B7D
     Copy CRC 19640B7D
     Track not present in AccurateRip database
     Copy OK
Track 12
     Filename C:\Sket4er\The Winyls – Honey And Lime (2008)\12 Little We Can Do.wav
     Pre-gap length  0:00:03.55
     Peak level 100.0 %
     Extraction speed 3.0 X
     Track quality 100.0 %
     Test CRC 965C08C8
     Copy CRC 965C08C8
     Track not present in AccurateRip database
     Copy OK
None of the tracks are present in the AccurateRip database
No errors occurred
End of status report
---- CUETools DB Plugin V2.1.6
[CTDB TOCID: RxOv5yumK0Ml1KpDrtC_5XNDORg-] found
Submit result: already submitted
Track | CTDB Status
  1   | (1/1) Accurately ripped
  2   | (1/1) Accurately ripped
  3   | (1/1) Accurately ripped
  4   | (1/1) Accurately ripped
  5   | (1/1) Accurately ripped
  6   | (1/1) Accurately ripped
  7   | (1/1) Accurately ripped
  8   | (1/1) Accurately ripped
  9   | (1/1) Accurately ripped
 10   | (1/1) Accurately ripped
 11   | (1/1) Accurately ripped
 12   | (1/1) Accurately ripped
==== Log checksum A47210A1F2197D3D01287FEB2D975077D1BE5E701853A29E39B62EFACFF47182 ====
Код:
REM GENRE Rock
REM DATE 2008
REM DISCID B909680C
REM COMMENT "ExactAudioCopy v1.1"
PERFORMER "The Winyls"
TITLE "Honey And Lime"
FILE "01 See Me Alive.wav" WAVE
  TRACK 01 AUDIO
    TITLE "See Me Alive"
    PERFORMER "The Winyls"
    INDEX 01 00:00:00
FILE "02 I Know.wav" WAVE
  TRACK 02 AUDIO
    TITLE "I Know"
    PERFORMER "The Winyls"
    INDEX 01 00:00:00
FILE "03 Keep Rock 'N' Roll Alive.wav" WAVE
  TRACK 03 AUDIO
    TITLE "Keep Rock 'N' Roll Alive"
    PERFORMER "The Winyls"
    INDEX 01 00:00:00
  TRACK 04 AUDIO
    TITLE "Would You Believe"
    PERFORMER "The Winyls"
    INDEX 00 03:04:51
FILE "04 Would You Believe.wav" WAVE
    INDEX 01 00:00:00
  TRACK 05 AUDIO
    TITLE "What If"
    PERFORMER "The Winyls"
    INDEX 00 02:42:69
FILE "05 What If.wav" WAVE
    INDEX 01 00:00:00
FILE "06 Loser's Blues.wav" WAVE
  TRACK 06 AUDIO
    TITLE "Loser's Blues"
    PERFORMER "The Winyls"
    INDEX 01 00:00:00
FILE "07 Honey & Lime.wav" WAVE
  TRACK 07 AUDIO
    TITLE "Honey & Lime"
    PERFORMER "The Winyls"
    INDEX 01 00:00:00
FILE "08 If You Ever.wav" WAVE
  TRACK 08 AUDIO
    TITLE "If You Ever"
    PERFORMER "The Winyls"
    INDEX 01 00:00:00
FILE "09 Loose Talk.wav" WAVE
  TRACK 09 AUDIO
    TITLE "Loose Talk"
    PERFORMER "The Winyls"
    INDEX 01 00:00:00
FILE "10 Now.wav" WAVE
  TRACK 10 AUDIO
    TITLE "Now"
    PERFORMER "The Winyls"
    INDEX 01 00:00:00
FILE "11 You, Me & Rock 'N' Roll.wav" WAVE
  TRACK 11 AUDIO
    TITLE "You, Me & Rock 'N' Roll"
    PERFORMER "The Winyls"
    INDEX 01 00:00:00
  TRACK 12 AUDIO
    TITLE "Little We Can Do"
    PERFORMER "The Winyls"
    INDEX 00 03:03:69
FILE "12 Little We Can Do.wav" WAVE
    INDEX 01 00:00:00
Код:
-----------------------
DON'T MODIFY THIS FILE
-----------------------
PERFORMER: auCDtect Task Manager, ver. 1.5.1RC4 build 1.5.1.5
Copyright (c) 2008-2010 y-soft. All rights reserved
[url=http://y-soft.org]http://y-soft.org[/url]
ANALYZER: auCDtect: CD records authenticity detector, version 0.8.2
Copyright (c) 2004 Oleg Berngardt. All rights reserved.
Copyright (c) 2004 Alexander Djourik. All rights reserved.
FILE: 12 Little We Can Do.flac
  Size: 30391116 Hash: 975AF8A90649926952C80442C5D8B61D Accuracy: -m0
  Conclusion: CDDA 99%
  Signature: 77E6DAE9A498D178A26482489B33486BA4A7DD7D
FILE: 11 You, Me & Rock 'N' Roll.flac
  Size: 22824390 Hash: 789F339EE86F9155AE7FDA23D4432096 Accuracy: -m0
  Conclusion: CDDA 100%
  Signature: C0A9B833D844F00F666C6B6C1B7E1974E75377C4
FILE: 10 Now.flac
  Size: 19765266 Hash: FEDCA4521CCBD9B7B4EF6A8C2B248814 Accuracy: -m0
  Conclusion: CDDA 100%
  Signature: 50D12FD8FF77C311D23BD3DE7910B6F8327932BF
FILE: 09 Loose Talk.flac
  Size: 28841129 Hash: C924674098C31D55745D1B5F84A0D837 Accuracy: -m0
  Conclusion: CDDA 100%
  Signature: 598888B9C5D2936E22BD8FDE93597BA9FF70EF81
FILE: 08 If You Ever.flac
  Size: 28684256 Hash: B9ADAABA43A81B59783AE44E5B1E2A19 Accuracy: -m0
  Conclusion: CDDA 100%
  Signature: 516985F46716EB81D84B8857DF9D345C4A56BA33
FILE: 07 Honey & Lime.flac
  Size: 26270949 Hash: EC54944CEA8D3F9CBCE083A3D1EC52E4 Accuracy: -m0
  Conclusion: CDDA 100%
  Signature: B3C3374580C5703B75402F21971E37925EBB1813
FILE: 06 Loser's Blues.flac
  Size: 21531864 Hash: E1CB6A1856F977C04EE6A9EE9BA0E370 Accuracy: -m0
  Conclusion: CDDA 100%
  Signature: C05A9005C7F1CBCB38323A732748BB25F3D092A7
FILE: 05 What If.flac
  Size: 25358853 Hash: 3859CD2C0BAD7DAE8438A14D8D79C8D3 Accuracy: -m0
  Conclusion: CDDA 100%
  Signature: E3347AC81500763CC8323CC5FE1E42309B168F94
FILE: 04 Would You Believe.flac
  Size: 19058543 Hash: 931F1B09276D96A2CA8283F54787A601 Accuracy: -m0
  Conclusion: CDDA 100%
  Signature: 9D37C19DB3EFCC09D3D3526EF27A2CDB2D50D8F2
FILE: 03 Keep Rock 'N' Roll Alive.flac
  Size: 24164029 Hash: B0C4DEB0F0D225F910BC9ABA9E1154F9 Accuracy: -m0
  Conclusion: CDDA 100%
  Signature: CBAD04FA25D7446BB6E4B9AD48A8CB92BFA5785C
FILE: 02 I Know.flac
  Size: 26444954 Hash: DEA4AD8B504DEEB330FDEE72F1F00555 Accuracy: -m0
  Conclusion: CDDA 100%
  Signature: CBC87F1479427518A666AEA61535AD547A0A2F26
FILE: 01 See Me Alive.flac
  Size: 24062531 Hash: 350092F4DF328080628776D285D16F8B Accuracy: -m0
  Conclusion: CDDA 100%
  Signature: C0723739BDF2FD0B07DFBF07DFA84F1237EFC25B
Код:
[CUETools log; Date: 17.01.2017 11:22:15; Version: 2.1.4]
[CTDB TOCID: RxOv5yumK0Ml1KpDrtC_5XNDORg-] found.
Track | CTDB Status
  1   | (1/1) Accurately ripped
  2   | (1/1) Accurately ripped
  3   | (1/1) Accurately ripped
  4   | (1/1) Accurately ripped
  5   | (1/1) Accurately ripped
  6   | (1/1) Accurately ripped
  7   | (1/1) Accurately ripped
  8   | (1/1) Accurately ripped
  9   | (1/1) Accurately ripped
 10   | (1/1) Accurately ripped
 11   | (1/1) Accurately ripped
 12   | (1/1) Accurately ripped
[AccurateRip ID: 00116567-00a30068-b909680c] disk not present in database.
Track Peak [ CRC32  ] [W/O NULL] [  LOG   ]
 --  100,0 [69ABF2A6] [602085E2]
 01  100,0 [DE9399E3] [E80D6E4E]   CRC32
 02  100,0 [EF91F70D] [963BD6E4]   CRC32
 03  100,0 [7A8E404D] [DCCC7372]   CRC32
 04  100,0 [3273BF86] [84AFAE05]   CRC32
 05   99,9 [981BE383] [F5307D4D]   CRC32
 06  100,0 [A7F3144B] [EF86825E]   CRC32
 07  100,0 [50457B57] [CBEF9862]   CRC32
 08   97,2 [344E738D] [915D4332]   CRC32
 09  100,0 [61B3F541] [43916EC2]   CRC32
 10  100,0 [51EC64EB] [DA184B58]   CRC32
 11  100,0 [19640B7D] [566FC129]   CRC32
 12  100,0 [965C08C8] [F322F73B]   CRC32
Код:
foobar2000 1.3.9 / Замер динамического диапазона (DR) 1.1.1
Дата отчёта:  2017-01-17 10:24:06
--------------------------------------------------------------------------------
Анализ:   The Winyls / Honey And Lime
--------------------------------------------------------------------------------
DR         Пики         RMS           Продолжительность трека
--------------------------------------------------------------------------------
DR7        0.00 дБ    -7.80 дБ      3:10 01-See Me Alive
DR7        0.00 дБ    -8.51 дБ      3:26 02-I Know
DR7        0.00 дБ    -8.33 дБ      3:06 03-Keep Rock 'N' Roll Alive
DR7        0.00 дБ    -9.08 дБ      2:44 04-Would You Believe
DR7       -0.01 дБ   -10.67 дБ      3:38 05-What If
DR7        0.00 дБ    -8.95 дБ      2:50 06-Loser's Blues
DR7        0.00 дБ    -8.39 дБ      3:29 07-Honey & Lime
DR7       -0.24 дБ    -8.83 дБ      3:43 08-If You Ever
DR8        0.00 дБ    -8.51 дБ      3:45 09-Loose Talk
DR7        0.00 дБ    -9.09 дБ      2:36 10-Now
DR8        0.00 дБ    -9.28 дБ      3:08 11-You, Me & Rock 'N' Roll
DR7        0.00 дБ   -11.48 дБ      4:35 12-Little We Can Do
--------------------------------------------------------------------------------
Количество треков: 12
Реальные значения DR: DR7
Частота:   44100 Гц
Каналов:   2
Разрядность:   16
Битрейт:   884 кбит/с
Кодек:   FLAC
================================================================================
Доп. информация
Leady Winyl - Vocals
James James - Bass , Vocals
HC Andersson - Organ, Guitars, Vocals
Sheriff - Lead Guitar
Pablo Sporre - Drums
Правила, инструкции, FAQ!!!
Торрент  Добавлен [26 мар 2019, 20:25] Скачать торрент Магнет ссылка
Скачать торрент
[ Размер 13.27 КБ / Просмотров 6 ]

Статус
Проверен 
 
Размер  292.29 МБ
Приватный: Нет (DHT включён)
.torrent скачан  0
 


     Отправить личное сообщение
   
Страница 1 из 1
Показать сообщения за:  Поле сортировки  
Начать новую тему Ответить на тему


Сейчас этот форум просматривают: нет зарегистрированных пользователей и гости: 0


Вы не можете начинать темы
Вы не можете отвечать на сообщения
Вы не можете редактировать свои сообщения
Вы не можете удалять свои сообщения
Вы не можете добавлять вложения

Перейти:  
cron