Начать новую тему Ответить на тему
Статистика раздачи
Размер: 404.98 МБ | Добавлен: 26 мар 2019, 19:12 | Скачали: 0
Сидеров: 0  [0 байт/сек]    Личеров: 0  [0 байт/сек]
Пред. тема | След. тема 

Автор
Сообщение

СообщениеДобавлено: 26 мар 2019, 19:12 

Ответить с цитатой 

The Cheeks / Royal Pop Elevation
Жанр: Pop/Rock/Garage Rock Revival
Страна-производитель диска: Germany
Год издания: 2001
Издатель (лейбл): Wolverine Records
Номер по каталогу: WRR 078
Страна: Germany
Аудиокодек: FLAC (*.flac)
Тип рипа: tracks+.cue
Битрейт аудио: lossless
Продолжительность: 00:46:55
Источник (релизер): Свой диск
Наличие сканов в содержимом раздачи: да
Треклист:
01. Let's Be Friends Again - 03:34
02. Some More Action - 03:47
03. Inside Outside - 04:54
04. Mr. Rain - 03:11
05. Disappointed - 03:12
06. Where The Time Goes - 02:56
07. Supermodel - 03:46
08. It's Too Late To Stop Now - 03:02
09. Married Girl - 02:57
10. I Remeber - 03:57
11. No Use Pretending - 02:36
12. Everybody's Darling - 03:04
13. Can't Stand Surfin' - 02:53
14. I Cant't Really Go On Without Her - 02:58
Код:
Exact Audio Copy V1.0 beta 3 from 29. August 2011
Отчёт EAC об извлечении, выполненном 30. марта 2013, 20:41
The Cheeks / Royal Pop Elevation
Дисковод: ASUS    DRW-24B3ST   Adapter: 1  ID: 0
Режим чтения                 : Достоверность
Использование точного потока : Да
Отключение кэша аудио        : Да
Использование указателей C2  : Нет
Коррекция смещения при чтении                     : 6
Способность читать области Lead-in и Lead-out     : Нет
Заполнение пропущенных сэмплов тишиной            : Да
Удаление блоков с тишиной в начале и конце        : Нет
При вычислениях CRC использовались нулевые сэмплы : Да
Интерфейс                                         : Встроенный Win32-интерфейс для Win NT/2000
Обработка зазоров                                 : Добавлено к предыдущему треку
Выходной формат          : Пользовательский кодировщик
Выбранный битрейт        : 1024 kBit/s
Качество                 : Высокий
Добавление ID3-тега      : Нет
Утилита сжатия           : C:\Program Files\Exact Audio Copy\Flac\flac.exe
Дополнительные параметры : -V -8 -T "Genre=%genre%" -T "Artist=%artist%" -T "Title=%title%" -T "Album=%albumtitle%" -T "Date=%year%" -T "Tracknumber=%tracknr%" -T "Comment=%comment%" %source%
TOC извлечённого CD
     Трек |   Старт  | Длительность | Начальный сектор | Конечный сектор
    ---------------------------------------------------------------------
       1  |  0:00.00 |    3:34.13   |           0      |      16062
       2  |  3:34.13 |    3:47.66   |       16063      |      33153
       3  |  7:22.04 |    4:54.34   |       33154      |      55237
       4  | 12:16.38 |    3:11.68   |       55238      |      69630
       5  | 15:28.31 |    3:12.23   |       69631      |      84053
       6  | 18:40.54 |    2:56.25   |       84054      |      97278
       7  | 21:37.04 |    3:46.55   |       97279      |     114283
       8  | 25:23.59 |    3:02.06   |      114284      |     127939
       9  | 28:25.65 |    2:57.26   |      127940      |     141240
      10  | 31:23.16 |    3:57.15   |      141241      |     159030
      11  | 35:20.31 |    2:36.70   |      159031      |     170800
      12  | 37:57.26 |    3:04.65   |      170801      |     184665
      13  | 41:02.16 |    2:53.64   |      184666      |     197704
      14  | 43:56.05 |    2:58.71   |      197705      |     211125
Трек  1
     Имя файла C:\Documents and Settings\Sergei\Мои документы\Моя музыка\EAC\01. Let's Be Friends Again.wav
     Длина предзазора  0:00:02.00
     Пиковый уровень 99.2 %
     Скорость извлечения 3.2 X
     Качество трека 100.0 %
     CRC теста A94CD343
     CRC копии A94CD343
     Трек не обнаружен в базе AccurateRip
     Копирование... OK
Трек  2
     Имя файла C:\Documents and Settings\Sergei\Мои документы\Моя музыка\EAC\02. Some More Action.wav
     Пиковый уровень 96.0 %
     Скорость извлечения 3.5 X
     Качество трека 100.0 %
     CRC теста B5C66FB9
     CRC копии B5C66FB9
     Трек не обнаружен в базе AccurateRip
     Копирование... OK
Трек  3
     Имя файла C:\Documents and Settings\Sergei\Мои документы\Моя музыка\EAC\03. Inside Outside.wav
     Пиковый уровень 99.2 %
     Скорость извлечения 3.4 X
     Качество трека 99.9 %
     CRC теста 4367811D
     CRC копии 4367811D
     Трек не обнаружен в базе AccurateRip
     Копирование... OK
Трек  4
     Имя файла C:\Documents and Settings\Sergei\Мои документы\Моя музыка\EAC\04. Mr. Rain.wav
     Пиковый уровень 99.2 %
     Скорость извлечения 3.1 X
     Качество трека 99.9 %
     CRC теста 4E27FBFD
     CRC копии 4E27FBFD
     Трек не обнаружен в базе AccurateRip
     Копирование... OK
Трек  5
     Имя файла C:\Documents and Settings\Sergei\Мои документы\Моя музыка\EAC\05. Disappointed.wav
     Пиковый уровень 99.2 %
     Скорость извлечения 4.3 X
     Качество трека 100.0 %
     CRC теста 13EE4F30
     CRC копии 13EE4F30
     Трек не обнаружен в базе AccurateRip
     Копирование... OK
Трек  6
     Имя файла C:\Documents and Settings\Sergei\Мои документы\Моя музыка\EAC\06. Where The Time Goes.wav
     Пиковый уровень 99.2 %
     Скорость извлечения 4.4 X
     Качество трека 100.0 %
     CRC теста F3A43EE6
     CRC копии F3A43EE6
     Трек не обнаружен в базе AccurateRip
     Копирование... OK
Трек  7
     Имя файла C:\Documents and Settings\Sergei\Мои документы\Моя музыка\EAC\07. Supermodel.wav
     Пиковый уровень 99.2 %
     Скорость извлечения 3.8 X
     Качество трека 99.9 %
     CRC теста 4366101A
     CRC копии 4366101A
     Трек не обнаружен в базе AccurateRip
     Копирование... OK
Трек  8
     Имя файла C:\Documents and Settings\Sergei\Мои документы\Моя музыка\EAC\08. It's Too Late To Stop Now.wav
     Пиковый уровень 99.2 %
     Скорость извлечения 4.7 X
     Качество трека 100.0 %
     CRC теста 3E8CF79C
     CRC копии 3E8CF79C
     Трек не обнаружен в базе AccurateRip
     Копирование... OK
Трек  9
     Имя файла C:\Documents and Settings\Sergei\Мои документы\Моя музыка\EAC\09. Married Girl.wav
     Пиковый уровень 99.2 %
     Скорость извлечения 4.9 X
     Качество трека 100.0 %
     CRC теста 68BD482C
     CRC копии 68BD482C
     Трек не обнаружен в базе AccurateRip
     Копирование... OK
Трек 10
     Имя файла C:\Documents and Settings\Sergei\Мои документы\Моя музыка\EAC\10. I Remeber.wav
     Пиковый уровень 99.2 %
     Скорость извлечения 5.2 X
     Качество трека 100.0 %
     CRC теста 6C234BC7
     CRC копии 6C234BC7
     Трек не обнаружен в базе AccurateRip
     Копирование... OK
Трек 11
     Имя файла C:\Documents and Settings\Sergei\Мои документы\Моя музыка\EAC\11. No Use Pretending.wav
     Пиковый уровень 99.2 %
     Скорость извлечения 4.9 X
     Качество трека 100.0 %
     CRC теста 0518F8DA
     CRC копии 0518F8DA
     Трек не обнаружен в базе AccurateRip
     Копирование... OK
Трек 12
     Имя файла C:\Documents and Settings\Sergei\Мои документы\Моя музыка\EAC\12. Everybody's Darling.wav
     Пиковый уровень 99.2 %
     Скорость извлечения 5.0 X
     Качество трека 100.0 %
     CRC теста DBA27F93
     CRC копии DBA27F93
     Трек не обнаружен в базе AccurateRip
     Копирование... OK
Трек 13
     Имя файла C:\Documents and Settings\Sergei\Мои документы\Моя музыка\EAC\13. Can't Stand Surfin'.wav
     Пиковый уровень 99.2 %
     Скорость извлечения 4.9 X
     Качество трека 100.0 %
     CRC теста 7BB37584
     CRC копии 7BB37584
     Трек не обнаружен в базе AccurateRip
     Копирование... OK
Трек 14
     Имя файла C:\Documents and Settings\Sergei\Мои документы\Моя музыка\EAC\14. I Cant't Really Go On Without Her.wav
     Пиковый уровень 98.1 %
     Скорость извлечения 3.9 X
     Качество трека 99.9 %
     CRC теста 9CE0D00F
     CRC копии 9CE0D00F
     Трек не обнаружен в базе AccurateRip
     Копирование... OK
Ни одного трека нет в базе AccurateRip
Ошибок не произошло
Конец отчёта
==== Контрольная сумма отчёта 13952387935083469AF98C6DF1026E2B139A90A97409DA8B9FAED47AFAB3BBCD ====
Код:
REM GENRE Pop
REM DATE 2000
REM DISCID C00AFF0E
REM COMMENT "ExactAudioCopy v1.0b3"
PERFORMER "The Cheeks"
TITLE "Royal Pop Elevation"
FILE "01. Let's Be Friends Again.wav" WAVE
  TRACK 01 AUDIO
    TITLE "Let's Be Friends Again"
    PERFORMER "The Cheeks"
    INDEX 01 00:00:00
FILE "02. Some More Action.wav" WAVE
  TRACK 02 AUDIO
    TITLE "Some More Action"
    PERFORMER "The Cheeks"
    INDEX 01 00:00:00
FILE "03. Inside Outside.wav" WAVE
  TRACK 03 AUDIO
    TITLE "Inside Outside"
    PERFORMER "The Cheeks"
    INDEX 01 00:00:00
FILE "04. Mr. Rain.wav" WAVE
  TRACK 04 AUDIO
    TITLE "Mr. Rain"
    PERFORMER "The Cheeks"
    INDEX 01 00:00:00
FILE "05. Disappointed.wav" WAVE
  TRACK 05 AUDIO
    TITLE "Disappointed"
    PERFORMER "The Cheeks"
    INDEX 01 00:00:00
FILE "06. Where The Time Goes.wav" WAVE
  TRACK 06 AUDIO
    TITLE "Where The Time Goes"
    PERFORMER "The Cheeks"
    INDEX 01 00:00:00
FILE "07. Supermodel.wav" WAVE
  TRACK 07 AUDIO
    TITLE "Supermodel"
    PERFORMER "The Cheeks"
    INDEX 01 00:00:00
FILE "08. It's Too Late To Stop Now.wav" WAVE
  TRACK 08 AUDIO
    TITLE "It's Too Late To Stop Now"
    PERFORMER "The Cheeks"
    INDEX 01 00:00:00
FILE "09. Married Girl.wav" WAVE
  TRACK 09 AUDIO
    TITLE "Married Girl"
    PERFORMER "The Cheeks"
    INDEX 01 00:00:00
FILE "10. I Remeber.wav" WAVE
  TRACK 10 AUDIO
    TITLE "I Remeber"
    PERFORMER "The Cheeks"
    INDEX 01 00:00:00
FILE "11. No Use Pretending.wav" WAVE
  TRACK 11 AUDIO
    TITLE "No Use Pretending"
    PERFORMER "The Cheeks"
    INDEX 01 00:00:00
FILE "12. Everybody's Darling.wav" WAVE
  TRACK 12 AUDIO
    TITLE "Everybody's Darling"
    PERFORMER "The Cheeks"
    INDEX 01 00:00:00
FILE "13. Can't Stand Surfin'.wav" WAVE
  TRACK 13 AUDIO
    TITLE "Can't Stand Surfin'"
    PERFORMER "The Cheeks"
    INDEX 01 00:00:00
FILE "14. I Cant't Really Go On Without Her.wav" WAVE
  TRACK 14 AUDIO
    TITLE "I Cant't Really Go On Without Her"
    PERFORMER "The Cheeks"
    INDEX 01 00:00:00
Доп. информация: http://rateyourmusic.com/artist/the_cheeks
Kono Cheng [aka Kono] - lead vocals
Cheeky Olav - drums
Sugar Theisseen - bass, guitar, backing vocals
Oliver "Pille" Pilsner - bass, backing vocals
Chris Riza - guitar, backing vocals
Правила, инструкции, FAQ!!!
Торрент  Добавлен [26 мар 2019, 19:12] Скачать торрент Магнет ссылка
Скачать торрент
[ Размер 17.64 КБ / Просмотров 5 ]

Статус
Проверен 
 
Размер  404.98 МБ
Приватный: Нет (DHT включён)
.torrent скачан  0
 


     Отправить личное сообщение
   
Страница 1 из 1
Показать сообщения за:  Поле сортировки  
Начать новую тему Ответить на тему


Сейчас этот форум просматривают: нет зарегистрированных пользователей и гости: 0


Вы не можете начинать темы
Вы не можете отвечать на сообщения
Вы не можете редактировать свои сообщения
Вы не можете удалять свои сообщения
Вы не можете добавлять вложения

Перейти:  
cron