Начать новую тему Ответить на тему
Статистика раздачи
Размер: 341.82 МБ | Добавлен: 26 мар 2019, 19:15 | Скачали: 0
Сидеров: 0  [0 байт/сек]    Личеров: 0  [0 байт/сек]
Пред. тема | След. тема 

Автор
Сообщение

СообщениеДобавлено: 26 мар 2019, 19:15 

Ответить с цитатой 

La Grande Sophie / La Suite
Жанр: Pop-Rock, french
Год издания: 2005
Аудиокодек: FLAC (*.flac)
Тип рипа: tracks+.cue
Битрейт аудио: lossless
Продолжительность: 00:47:08
Источник (релизер): What.cd
Наличие сканов в содержимом раздачи: нет
Треклист:
01 Un jour heureuse
02 Petite princesse
03 Psy psychanalyste
04 Je ne changerai jamais
05 La suite, le milieu, la fin
06 Les bonnes résolutions
07 Aujourd'hui on se marie
08 Egoïste
09 Les nouveaux héros
10 La fille du bord de mer
11 J'ai demandé l'heure
12 La liberté
13 Dans les roseaux sauvages
14 J'aime le Rock'n Roll
Код:
Exact Audio Copy V0.99 prebeta 4 from 23. January 2008
EAC extraction logfile from 10. November 2009, 11:35
La grande Sophie / La suite...
Used drive  : PLEXTOR DVDR   PX-750A   Adapter: 7  ID: 0
Read mode               : Secure
Utilize accurate stream : Yes
Defeat audio cache      : Yes
Make use of C2 pointers : No
Read offset correction                      : 102
Overread into Lead-In and Lead-Out          : No
Fill up missing offset samples with silence : Yes
Delete leading and trailing silent blocks   : No
Null samples used in CRC calculations       : Yes
Used interface                              : Native Win32 interface for Win NT & 2000
Gap handling                                : Appended to previous track
Used output format              : User Defined Encoder
Selected bitrate                : 1024 kBit/s
Quality                         : High
Add ID3 tag                     : No
Command line compressor         : C:\Program Files\FLAC\flac.exe
Additional command line options : -V -8 -T "artist=%a" -T "title=%t" -T "album=%g" -T "date=%y" -T "tracknumber=%n" -T "genre=%m" %s
TOC of the extracted CD
     Track |   Start  |  Length  | Start sector | End sector
    ---------------------------------------------------------
        1  |  0:00.00 |  2:25.44 |         0    |    10918
        2  |  2:25.44 |  4:25.60 |     10919    |    30853
        3  |  6:51.29 |  3:59.40 |     30854    |    48818
        4  | 10:50.69 |  3:05.15 |     48819    |    62708
        5  | 13:56.09 |  2:53.59 |     62709    |    75742
        6  | 16:49.68 |  3:38.66 |     75743    |    92158
        7  | 20:28.59 |  3:47.35 |     92159    |   109218
        8  | 24:16.19 |  2:52.01 |    109219    |   122119
        9  | 27:08.20 |  3:55.66 |    122120    |   139810
       10  | 31:04.11 |  3:14.08 |    139811    |   154368
       11  | 34:18.19 |  3:47.14 |    154369    |   171407
       12  | 38:05.33 |  3:13.40 |    171408    |   185922
       13  | 41:18.73 |  3:23.05 |    185923    |   201152
       14  | 44:42.03 |  2:25.44 |    201153    |   212071
       15  | 49:39.47 |  6:46.08 |    223472    |   253929
Track  1
     Filename F:\Torrent\FLAC\La grande Sophie\La suite\01 - Un jour heureuse.wav
     Pre-gap length  0:00:02.00
     Peak level 99.3 %
     Track quality 100.0 %
     Test CRC 9D5CEA09
     Copy CRC 9D5CEA09
     Copy OK
Track  2
     Filename F:\Torrent\FLAC\La grande Sophie\La suite\02 - Petite princesse.wav
     Peak level 99.0 %
     Track quality 100.0 %
     Test CRC ED16CF1B
     Copy CRC ED16CF1B
     Copy OK
Track  3
     Filename F:\Torrent\FLAC\La grande Sophie\La suite\03 - Psy psychanalyste.wav
     Peak level 98.7 %
     Track quality 100.0 %
     Test CRC 7FFC6D56
     Copy CRC 7FFC6D56
     Copy OK
Track  4
     Filename F:\Torrent\FLAC\La grande Sophie\La suite\04 - Je ne changerai jamais.wav
     Peak level 98.8 %
     Track quality 100.0 %
     Test CRC 94AAD6B7
     Copy CRC 94AAD6B7
     Copy OK
Track  5
     Filename F:\Torrent\FLAC\La grande Sophie\La suite\05 - La suite, le milieu, la fin.wav
     Peak level 98.9 %
     Track quality 100.0 %
     Test CRC E505FE66
     Copy CRC E505FE66
     Copy OK
Track  6
     Filename F:\Torrent\FLAC\La grande Sophie\La suite\06 - Les bonnes rйsolutions.wav
     Pre-gap length  0:00:00.84
     Peak level 99.3 %
     Track quality 100.0 %
     Test CRC C50D17BD
     Copy CRC C50D17BD
     Copy OK
Track  7
     Filename F:\Torrent\FLAC\La grande Sophie\La suite\07 - Aujourd'hui on se marie.wav
     Peak level 98.9 %
     Track quality 99.9 %
     Test CRC 63335B45
     Copy CRC 63335B45
     Copy OK
Track  8
     Filename F:\Torrent\FLAC\La grande Sophie\La suite\08 - Egoпste.wav
     Peak level 99.0 %
     Track quality 99.9 %
     Test CRC 07E9FE3E
     Copy CRC 07E9FE3E
     Copy OK
Track  9
     Filename F:\Torrent\FLAC\La grande Sophie\La suite\09 - Les nouveaux hйros.wav
     Peak level 99.0 %
     Track quality 100.0 %
     Test CRC C4957648
     Copy CRC C4957648
     Copy OK
Track 10
     Filename F:\Torrent\FLAC\La grande Sophie\La suite\10 - La fille du bord de mer.wav
     Peak level 98.9 %
     Track quality 100.0 %
     Test CRC 5A6F259F
     Copy CRC 5A6F259F
     Copy OK
Track 11
     Filename F:\Torrent\FLAC\La grande Sophie\La suite\11 - J'ai demandй l'heure.wav
     Peak level 98.9 %
     Track quality 100.0 %
     Test CRC 03CDDBD7
     Copy CRC 03CDDBD7
     Copy OK
Track 12
     Filename F:\Torrent\FLAC\La grande Sophie\La suite\12 - La libertй.wav
     Peak level 94.3 %
     Track quality 100.0 %
     Test CRC 77C66C25
     Copy CRC 77C66C25
     Copy OK
Track 13
     Filename F:\Torrent\FLAC\La grande Sophie\La suite\13 - Dans les roseaux sauvages.wav
     Peak level 94.2 %
     Track quality 100.0 %
     Test CRC DFB98D6A
     Copy CRC DFB98D6A
     Copy OK
Track 14
     Filename F:\Torrent\FLAC\La grande Sophie\La suite\14 - J'aime le Rock'n Roll.wav
     Peak level 98.9 %
     Track quality 100.0 %
     Test CRC A9A795C1
     Copy CRC A9A795C1
     Copy OK
No errors occurred
End of status report
Код:
REM GENRE Rock
REM DATE 2005
REM DISCID C10D390F
REM COMMENT "ExactAudioCopy v0.99pb4"
FILE "La grande Sophie\La suite\01 - Un jour heureuse.wav" WAVE
  TRACK 01 AUDIO
    INDEX 01 00:00:00
FILE "La grande Sophie\La suite\02 - Petite princesse.wav" WAVE
  TRACK 02 AUDIO
    INDEX 01 00:00:00
FILE "La grande Sophie\La suite\03 - Psy psychanalyste.wav" WAVE
  TRACK 03 AUDIO
    INDEX 01 00:00:00
FILE "La grande Sophie\La suite\04 - Je ne changerai jamais.wav" WAVE
  TRACK 04 AUDIO
    INDEX 01 00:00:00
FILE "La grande Sophie\La suite\05 - La suite, le milieu, la fin.wav" WAVE
  TRACK 05 AUDIO
    INDEX 01 00:00:00
  TRACK 06 AUDIO
    INDEX 00 02:52:71
FILE "La grande Sophie\La suite\06 - Les bonnes rйsolutions.wav" WAVE
    INDEX 01 00:00:00
FILE "La grande Sophie\La suite\07 - Aujourd'hui on se marie.wav" WAVE
  TRACK 07 AUDIO
    INDEX 01 00:00:00
FILE "La grande Sophie\La suite\08 - Egoпste.wav" WAVE
  TRACK 08 AUDIO
    INDEX 01 00:00:00
FILE "La grande Sophie\La suite\09 - Les nouveaux hйros.wav" WAVE
  TRACK 09 AUDIO
    INDEX 01 00:00:00
FILE "La grande Sophie\La suite\10 - La fille du bord de mer.wav" WAVE
  TRACK 10 AUDIO
    INDEX 01 00:00:00
FILE "La grande Sophie\La suite\11 - J'ai demandй l'heure.wav" WAVE
  TRACK 11 AUDIO
    INDEX 01 00:00:00
FILE "La grande Sophie\La suite\12 - La libertй.wav" WAVE
  TRACK 12 AUDIO
    INDEX 01 00:00:00
FILE "La grande Sophie\La suite\13 - Dans les roseaux sauvages.wav" WAVE
  TRACK 13 AUDIO
    INDEX 01 00:00:00
FILE "La grande Sophie\La suite\14 - J'aime le Rock'n Roll.wav" WAVE
  TRACK 14 AUDIO
    INDEX 01 00:00:00
  TRACK 15 MODEx/2xxx
    INDEX 00 02:25:44
Правила, инструкции, FAQ!!!
Торрент  Добавлен [26 мар 2019, 19:15] Скачать торрент Магнет ссылка
Скачать торрент
[ Размер 14.84 КБ / Просмотров 3 ]

Статус
Проверен 
 
Размер  341.82 МБ
Приватный: Нет (DHT включён)
.torrent скачан  0
 


     Отправить личное сообщение
   
Страница 1 из 1
Показать сообщения за:  Поле сортировки  
Начать новую тему Ответить на тему


Сейчас этот форум просматривают: нет зарегистрированных пользователей и гости: 0


Вы не можете начинать темы
Вы не можете отвечать на сообщения
Вы не можете редактировать свои сообщения
Вы не можете удалять свои сообщения
Вы не можете добавлять вложения

Перейти:  
cron