Начать новую тему Ответить на тему
Статистика раздачи
Размер: 358.36 МБ | Добавлен: 26 мар 2019, 19:36 | Скачали: 0
Сидеров: 0  [0 байт/сек]    Личеров: 0  [0 байт/сек]
Пред. тема | След. тема 

Автор
Сообщение

СообщениеДобавлено: 26 мар 2019, 19:36 

Ответить с цитатой 

Sally Oldfield - The Songs of Sally Oldfield
Жанр: Pop-Rock & Folk Rock
Страна-производитель диска: Germany
Год издания: 1994
Издатель (лейбл): Prima Musik
Номер по каталогу: PMM 0566 - 2
Страна: UK
Аудиокодек: FLAC (*.flac)
Тип рипа: image+.cue
Битрейт аудио: lossless
Продолжительность: 01:02:29
Источник (релизер): Свой рип
Наличие сканов в содержимом раздачи: нет
Треклист:
01.Water Bearer
02.Song of the Lamp
03.River of My Childhood
04.Land Of The Sun
05.Celebration
06.Song of The Being
07.Woman of the Night
08.Path With A Heart
09.Playing In The Flame
10.Easy
11.Woman of the Night
12.Love Is Everythingr
13.Let It All Go
14.My Damsel Heart
15.Weaver

Код:
Exact Audio Copy V1.0 beta 3 from 29. August 2011
Отчёт EAC об извлечении, выполненном 26. сентября 2013, 18:54
Sally Oldfield / The Songs of Sally Oldfield
Дисковод: PIONEER BD-RW   BDR-206D   Adapter: 2  ID: 1
Режим чтения                 : Достоверность
Использование точного потока : Да
Отключение кэша аудио        : Да
Использование указателей C2  : Нет
Коррекция смещения при чтении                     : 667
Способность читать области Lead-in и Lead-out     : Нет
Заполнение пропущенных сэмплов тишиной            : Да
Удаление блоков с тишиной в начале и конце        : Нет
При вычислениях CRC использовались нулевые сэмплы : Да
Интерфейс                                         : Встроенный Win32-интерфейс для Win NT/2000
Выходной формат          : Пользовательский кодировщик
Выбранный битрейт        : 896 kBit/s
Качество                 : Высокий
Добавление ID3-тега      : Нет
Утилита сжатия           : C:\Program Files\FLAC\FLAC frontend.exe
Дополнительные параметры : -V -8 -T "Date=%year%" -T "Genre=%genre%" %source%
TOC извлечённого CD
     Трек |   Старт  | Длительность | Начальный сектор | Конечный сектор
    ---------------------------------------------------------------------
       1  |  0:00.00 |    6:28.57   |           0      |      29156
       2  |  6:28.57 |    3:19.00   |       29157      |      44081
       3  |  9:47.57 |    4:00.33   |       44082      |      62114
       4  | 13:48.15 |    1:54.10   |       62115      |      70674
       5  | 15:42.25 |    5:08.37   |       70675      |      93811
       6  | 20:50.62 |    4:41.00   |       93812      |     114886
       7  | 25:31.62 |    4:58.58   |      114887      |     137294
       8  | 30:30.45 |    5:38.57   |      137295      |     162701
       9  | 36:09.27 |    5:03.43   |      162702      |     185469
      10  | 41:12.70 |    3:51.07   |      185470      |     202801
      11  | 45:04.02 |    4:25.23   |      202802      |     222699
      12  | 49:29.25 |    3:03.42   |      222700      |     236466
      13  | 52:32.67 |    6:17.43   |      236467      |     264784
      14  | 58:50.35 |    3:38.32   |      264785      |     281166
Характеристики диапазона извлечения и сообщения об ошибках
Выбранный диапазон
     Имя файла D:\Sally Oldfield - The Songs of Sally Oldfield\Sally Oldfield - The Songs of Sally Oldfield.wav
     Подозрительная позиция 0:38:17 - 0:38:19
     Пиковый уровень 98.8 %
     Скорость извлечения 7.2 X
     Качество диапазона 99.9 %
     CRC теста 292AADF4
     CRC копии DFAC577E
     Копирование завершено
Были ошибки
AccurateRip: сводка
Трек  1  : извлечено точно (доверие 3)  [67F7D490]  (AR v1)
Трек  2  : извлечено точно (доверие 3)  [2832E021]  (AR v1)
Трек  3  : извлечено точно (доверие 3)  [DC42EF4E]  (AR v1)
Трек  4  : извлечено точно (доверие 3)  [8FCBC95F]  (AR v1)
Трек  5  : извлечено точно (доверие 3)  [AACB0128]  (AR v1)
Трек  6  : извлечено точно (доверие 3)  [58B3E1E4]  (AR v1)
Трек  7  : извлечено точно (доверие 3)  [0604083A]  (AR v1)
Трек  8  : извлечено точно (доверие 3)  [C6C39427]  (AR v1)
Трек  9  точность не определена (достоверность 3)  [3F6007EB], AccurateRip вернул [3C4AAD87]  (AR v2)
Трек 10  : извлечено точно (доверие 3)  [212F569E]  (AR v1)
Трек 11  : извлечено точно (доверие 3)  [8F8A54BD]  (AR v1)
Трек 12  : извлечено точно (доверие 3)  [0215C58D]  (AR v1)
Трек 13  : извлечено точно (доверие 3)  [66AFF30D]  (AR v1)
Трек 14  : извлечено точно (доверие 3)  [ACF76636]  (AR v1)
13 трек(и) скопированы точно
 1 трек(и) не удалось проверить на точность
Некоторые треки не прошли проверку на точность
Конец отчёта
==== Контрольная сумма отчёта 3BF49CCF722DCEDF4A488FDC7D9C1C36B430076D593D4C1C2543D96FCD9ADC5C ====

Певица, композитор Сэлли Олдфилд родилась 12 мая 1955 года в Ирландии.Младшая сестра знаменитого Майка Олдфилда Сэлли Олдфилд начала музыкальную карьеру в акустическом фолк-дуэте вместе с братом. Сэлли Олдфилд окончила Королевскую балетную академию, в Бристольском университете изучала философию. Первый альбом, записанный вместе с братом, вышел в 1968 году, в том же году вышел ее сольный диск. 70-е годы прошли в учебе. Сэлли Олдфилд не заглядывала в студию, и лишь в 1978 году вышел ее очередной диск. Сэлли Олдфилд сознательно не копирует манеру Майка, это просто невозможно, но имя его ей очень помогает. Стилистически музыка Сэлли Олдфилд - гибрид англо-ирландской народной музыки и довольно прямолинейного рока на танцевально-битовой ритмике. Среди самых заметных композиций Сэлли Олдфилд необходимо отметить «Mirrors» (1979), «Mandala» (1981) и «Silver Dagger» (1987).
Правила, инструкции, FAQ!!!
Торрент  Добавлен [26 мар 2019, 19:36] Скачать торрент Магнет ссылка
Скачать торрент
[ Размер 14.75 КБ / Просмотров 3 ]

Статус
Проверен 
 
Размер  358.36 МБ
Приватный: Нет (DHT включён)
.torrent скачан  0
 


     Отправить личное сообщение
   
Страница 1 из 1
Показать сообщения за:  Поле сортировки  
Начать новую тему Ответить на тему


Сейчас этот форум просматривают: нет зарегистрированных пользователей и гости: 0


Вы не можете начинать темы
Вы не можете отвечать на сообщения
Вы не можете редактировать свои сообщения
Вы не можете удалять свои сообщения
Вы не можете добавлять вложения

Перейти:  
cron