Начать новую тему Ответить на тему
Статистика раздачи
Размер: 435.15 МБ | Добавлен: 26 мар 2019, 19:51 | Скачали: 0
Сидеров: 0  [0 байт/сек]    Личеров: 14  [0 байт/сек]
Пред. тема | След. тема 

Автор
Сообщение

СообщениеДобавлено: 26 мар 2019, 19:51 

Ответить с цитатой 

Ryan Adams - Gold
Жанр: Pop-rock/Folk-Rock
Год выпуска диска: 2001
Производитель диска: USA
Аудио кодек: FLAC
Тип рипа: tracks+.cue
Битрейт аудио: lossless
Продолжительность: 1:10:26
Трэклист:
01. New York, New York (3:48)
02. Firecracker (2:52)
03. Answering Bell (3:05)
04. La Cienega Just Smiled (5:04)
05. The Rescue Blues (3:39)
06. Somehow Someday (4:24)
07. When The Stars Go Blue (3:32)
08. Nobody Girl (9:43)
09. Sylvia Plath (4:10)
10. Enemy Fire (4:09)
11. Gonna Make You Love Me (2:37)
12. Wild Flowers (5:00)
13. Harder Now That It's Over (4:33)
14. Touch Feel & Lose (4:17)
15. Tina Toledo's Street Walkin Blues (6:09)
16. Goodnight Hollywood Boulevard (3:26)
Exact Audio Copy V0.99 prebeta 4 from 23. January 2008
EAC extraction logfile from 17. January 2009, 5:36
Ryan Adams / Gold
Used drive : LITE-ON DVDRW SHW-160P6S Adapter: 1 ID: 0
Read mode : Secure
Utilize accurate stream : Yes
Defeat audio cache : Yes
Make use of C2 pointers : No
Read offset correction : 6
Overread into Lead-In and Lead-Out : No
Fill up missing offset samples with silence : Yes
Delete leading and trailing silent blocks : No
Null samples used in CRC calculations : No
Used interface : Native Win32 interface for Win NT & 2000
Gap handling : Appended to previous track
Used output format : Internal WAV Routines
Sample format : 44.100 Hz; 16 Bit; Stereo
TOC of the extracted CD
Track | Start | Length | Start sector | End sector
---------------------------------------------------------
1 | 0:00.00 | 3:47.42 | 0 | 17066
2 | 3:47.42 | 2:51.43 | 17067 | 29934
3 | 6:39.10 | 3:04.55 | 29935 | 43789
4 | 9:43.65 | 5:03.47 | 43790 | 66561
5 | 14:47.37 | 3:38.43 | 66562 | 82954
6 | 18:26.05 | 4:24.30 | 82955 | 102784
7 | 22:50.35 | 3:31.67 | 102785 | 118676
8 | 26:22.27 | 9:42.73 | 118677 | 162399
9 | 36:05.25 | 4:10.00 | 162400 | 181149
10 | 40:15.25 | 4:09.00 | 181150 | 199824
11 | 44:24.25 | 2:37.00 | 199825 | 211599
12 | 47:01.25 | 5:00.00 | 211600 | 234099
13 | 52:01.25 | 4:32.62 | 234100 | 254561
14 | 56:34.12 | 4:17.00 | 254562 | 273836
15 | 60:51.12 | 6:09.13 | 273837 | 301524
16 | 67:00.25 | 3:26.37 | 301525 | 317011
Track 1
Filename D:\_torrent\New Folder\Ryan_Adams_2001_Gold_01_New_York,_New_York.wav
Pre-gap length 0:00:02.00
Peak level 100.0 %
Track quality 100.0 %
Copy CRC AEB3B263
Accurately ripped (confidence 4) [6CDD4745]
Copy OK
Track 2
Filename D:\_torrent\New Folder\Ryan_Adams_2001_Gold_02_Firecracker.wav
Peak level 100.0 %
Track quality 100.0 %
Copy CRC 887FA456
Accurately ripped (confidence 4) [08A5B80C]
Copy OK
Track 3
Filename D:\_torrent\New Folder\Ryan_Adams_2001_Gold_03_Answering_Bell.wav
Pre-gap length 0:00:00.38
Peak level 100.0 %
Track quality 100.0 %
Copy CRC BE927B65
Accurately ripped (confidence 5) [5065CAE3]
Copy OK
Track 4
Filename D:\_torrent\New Folder\Ryan_Adams_2001_Gold_04_La_Cienega_Just_Smiled.wav
Peak level 100.0 %
Track quality 100.0 %
Copy CRC 37D25473
Accurately ripped (confidence 5) [45303EF3]
Copy OK
Track 5
Filename D:\_torrent\New Folder\Ryan_Adams_2001_Gold_05_The_Rescue_Blues.wav
Pre-gap length 0:00:00.62
Peak level 100.0 %
Track quality 100.0 %
Copy CRC 130C49DB
Accurately ripped (confidence 5) [D1E407FD]
Copy OK
Track 6
Filename D:\_torrent\New Folder\Ryan_Adams_2001_Gold_06_Somehow,_Someday.wav
Peak level 100.0 %
Track quality 100.0 %
Copy CRC FF901267
Accurately ripped (confidence 4) [BA717325]
Copy OK
Track 7
Filename D:\_torrent\New Folder\Ryan_Adams_2001_Gold_07_When_The_Stars_Go_Blue.wav
Peak level 100.0 %
Track quality 100.0 %
Copy CRC A1E34446
Accurately ripped (confidence 4) [F11EFEA1]
Copy OK
Track 8
Filename D:\_torrent\New Folder\Ryan_Adams_2001_Gold_08_Nobody_Girl.wav
Peak level 100.0 %
Track quality 100.0 %
Copy CRC 4A4A9FD5
Accurately ripped (confidence 4) [3E4A7D3F]
Copy OK
Track 9
Filename D:\_torrent\New Folder\Ryan_Adams_2001_Gold_09_SYLVIA_PLATH.wav
Pre-gap length 0:00:02.25
Peak level 99.4 %
Track quality 100.0 %
Copy CRC 3B50BC00
Accurately ripped (confidence 4) [57BEC48D]
Copy OK
Track 10
Filename D:\_torrent\New Folder\Ryan_Adams_2001_Gold_10_Enemy_Fire.wav
Peak level 100.0 %
Track quality 100.0 %
Copy CRC 8A68FB23
Accurately ripped (confidence 4) [53411725]
Copy OK
Track 11
Filename D:\_torrent\New Folder\Ryan_Adams_2001_Gold_11_Gonna_Make_You_Love_Me.wav
Peak level 100.0 %
Track quality 100.0 %
Copy CRC 41A3F4C8
Accurately ripped (confidence 5) [6BAF550F]
Copy OK
Track 12
Filename D:\_torrent\New Folder\Ryan_Adams_2001_Gold_12_Wild_Flowers.wav
Pre-gap length 0:00:00.49
Peak level 100.0 %
Track quality 100.0 %
Copy CRC 1B9AA592
Accurately ripped (confidence 4) [219F92E4]
Copy OK
Track 13
Filename D:\_torrent\New Folder\Ryan_Adams_2001_Gold_13_Harder_Now_That_It's_Over.wav
Peak level 100.0 %
Track quality 100.0 %
Copy CRC 37A655ED
Accurately ripped (confidence 5) [73DAEB76]
Copy OK
Track 14
Filename D:\_torrent\New Folder\Ryan_Adams_2001_Gold_14_Touch,_Feel_&_Lose.wav
Peak level 100.0 %
Track quality 99.9 %
Copy CRC 70C19B33
Accurately ripped (confidence 3) [BAE3E629]
Copy OK
Track 15
Filename D:\_torrent\New Folder\Ryan_Adams_2001_Gold_15_Tina_Toledo's_Street_Walkin'_Blues.wav
Pre-gap length 0:00:00.62
Peak level 100.0 %
Track quality 100.0 %
Copy CRC 0B3A1130
Accurately ripped (confidence 5) [3B41FBE2]
Copy OK
Track 16
Filename D:\_torrent\New Folder\Ryan_Adams_2001_Gold_16_Goodnight,_Hollywood_Blvd.wav
Pre-gap length 0:00:02.25
Peak level 100.0 %
Track quality 100.0 %
Copy CRC 76273654
Accurately ripped (confidence 4) [BAF5783D]
Copy OK
All tracks accurately ripped
No errors occurred
End of status report
Правила, инструкции, FAQ!!!
Торрент  Добавлен [26 мар 2019, 19:51] Скачать торрент Магнет ссылка
Скачать торрент
[ Размер 18.85 КБ / Просмотров 12 ]

Статус
Проверен 
 
Размер  435.15 МБ
Приватный: Нет (DHT включён)
.torrent скачан  0
 


     Отправить личное сообщение
   
Страница 1 из 1
Показать сообщения за:  Поле сортировки  
Начать новую тему Ответить на тему


Сейчас этот форум просматривают: нет зарегистрированных пользователей и гости: 0


Вы не можете начинать темы
Вы не можете отвечать на сообщения
Вы не можете редактировать свои сообщения
Вы не можете удалять свои сообщения
Вы не можете добавлять вложения

Перейти:  
cron