Начать новую тему Ответить на тему
Статистика раздачи
Размер: 286.61 МБ | Добавлен: 26 мар 2019, 18:42 | Скачали: 0
Сидеров: 0  [0 байт/сек]    Личеров: 0  [0 байт/сек]
Пред. тема | След. тема 

Автор
Сообщение

СообщениеДобавлено: 26 мар 2019, 18:42 

Ответить с цитатой 

Brooke Fraser

Albertine
Год выпуска: 2006 | Жанр: Pop-Rock, Folk-Rock
Продолжительность: 38:48 | Аудио кодек: FLAC
Тип рипа: tracks | Битрейт аудио: lossless
Трэклист:
1 Shadowfeet
2 Deciphering Me
3 Love, Where Is Your Fire?
4 Love Is Waiting
5 Albertine
6 C.S. Lewis Song
7 Epilogue
8 Faithful
9 Seeds
10 Hosea's Wife
11 The Thief
12 Hymn


Brooke Fraser — молодая певица из Новой Зеландии, отмеченная множеством музыкальных премий (в своей стране, в Австралии и т.д. ). Является активисткой «Hillsong United» — христианской молодежной организации при Hillsong Church, аффилированной с австралийской Australian Christian Churches. Те, кто хоть немного соприкасался с миром протестантских общин должен представлять «тип», довольно ярким выражением которого предстает Brooke Fraser: религиозная семья, строгое воспитание, с детства — занятия библейской экзегетикой (интерпретацией текстов священного писания) , скаутские лагеря с общими молитвами, туристическими походами, ритуалами братства и общности в вере, ощущение призванности и желание воплотить его в миссионерском служении через музыку, в буквальном следовании евангелиям…
Отсюда — участие во множестве социальных проектов: выступления на благотворительных концертах по сбору средств для помощи заболевшим детям, детям из бедных семей, бездомным; пожертвования госпиталям; филантропия в Танзании и Руанде (помощь пострадавшим от военных действий во время геноцида и гражданской войны); поддержка международных неправительственных организаций, оказывающих гуманитарную помощь странам, в которых люди умирают от голода (World Vision)…
Brooke Fraser — Saving The World
Иногда представляется, что этот «тип» непереводим для постсоветских стран (хотя отдельные люди и организации со сходной пассионарностью есть).
Information ripping to FLAC, 'Track 1' to 'G:\demonoid\Brooke Fraser\Albertine\Brooke Fraser - 01 - Shadowfeet.flac'
Track 1: Ripped LBA 0 to 16305 (3:37) in 0:15. Filename: G:\demonoid\Brooke Fraser\Albertine\Brooke Fraser - 01 - Shadowfeet.flac
AccurateRip: Accurate (confidence 6) [Pass 1]
CRC32: 9870DAAA AccurateRip CRC: 79C18EA5 [DiscID: 012-0014fc94-00c26f8c-a20aab0c-1]
Information ripping to FLAC, 'Track 2' to 'G:\demonoid\Brooke Fraser\Albertine\Brooke Fraser - 02 - Deciphering Me.flac'
Track 2: Ripped LBA 16305 to 35622 (4:17) in 0:12. Filename: G:\demonoid\Brooke Fraser\Albertine\Brooke Fraser - 02 - Deciphering Me.flac
AccurateRip: Accurate (confidence 6) [Pass 1]
CRC32: 5DB72C41 AccurateRip CRC: 979CB7C0 [DiscID: 012-0014fc94-00c26f8c-a20aab0c-2]
Information ripping to FLAC, 'Track 3' to 'G:\demonoid\Brooke Fraser\Albertine\Brooke Fraser - 03 - Love, Where Is Your Fireї.flac'
Track 3: Ripped LBA 35622 to 55187 (4:20) in 0:11. Filename: G:\demonoid\Brooke Fraser\Albertine\Brooke Fraser - 03 - Love, Where Is Your Fireї.flac
AccurateRip: Accurate (confidence 6) [Pass 1]
CRC32: 5597C192 AccurateRip CRC: 2F775C7C [DiscID: 012-0014fc94-00c26f8c-a20aab0c-3]
Information ripping to FLAC, 'Track 4' to 'G:\demonoid\Brooke Fraser\Albertine\Brooke Fraser - 04 - Love Is Waiting.flac'
Track 4: Ripped LBA 55187 to 75557 (4:31) in 0:10. Filename: G:\demonoid\Brooke Fraser\Albertine\Brooke Fraser - 04 - Love Is Waiting.flac
AccurateRip: Accurate (confidence 6) [Pass 1]
CRC32: 74888CC4 AccurateRip CRC: 64206BC7 [DiscID: 012-0014fc94-00c26f8c-a20aab0c-4]
Information ripping to FLAC, 'Track 5' to 'G:\demonoid\Brooke Fraser\Albertine\Brooke Fraser - 05 - Albertine.flac'
Track 5: Ripped LBA 75557 to 93184 (3:55) in 0:08. Filename: G:\demonoid\Brooke Fraser\Albertine\Brooke Fraser - 05 - Albertine.flac
AccurateRip: Accurate (confidence 6) [Pass 1]
CRC32: 2F31618C AccurateRip CRC: 29317655 [DiscID: 012-0014fc94-00c26f8c-a20aab0c-5]
Information ripping to FLAC, 'Track 7' to 'G:\demonoid\Brooke Fraser\Albertine\Brooke Fraser - 07 - Epilogue.flac'
Track 7: Ripped LBA 114067 to 119544 (1:13) in 0:02. Filename: G:\demonoid\Brooke Fraser\Albertine\Brooke Fraser - 07 - Epilogue.flac
AccurateRip: Accurate (confidence 6) [Pass 1]
CRC32: 11F5C364 AccurateRip CRC: 24297C7F [DiscID: 012-0014fc94-00c26f8c-a20aab0c-7]
Information ripping to FLAC, 'Track 6' to 'G:\demonoid\Brooke Fraser\Albertine\Brooke Fraser - 06 - C.S. Lewis Song.flac'
Track 6: Ripped LBA 93184 to 114067 (4:38) in 0:09. Filename: G:\demonoid\Brooke Fraser\Albertine\Brooke Fraser - 06 - C.S. Lewis Song.flac
AccurateRip: Accurate (confidence 6) [Pass 1]
CRC32: 8C54C399 AccurateRip CRC: 7EC08B70 [DiscID: 012-0014fc94-00c26f8c-a20aab0c-6]
Information ripping to FLAC, 'Track 8' to 'G:\demonoid\Brooke Fraser\Albertine\Brooke Fraser - 08 - Faithful.flac'
Track 8: Ripped LBA 119544 to 138901 (4:18) in 0:08. Filename: G:\demonoid\Brooke Fraser\Albertine\Brooke Fraser - 08 - Faithful.flac
AccurateRip: Accurate (confidence 6) [Pass 1]
CRC32: 8E890C62 AccurateRip CRC: 8C300962 [DiscID: 012-0014fc94-00c26f8c-a20aab0c-8]
Information ripping to FLAC, 'Track 9' to 'G:\demonoid\Brooke Fraser\Albertine\Brooke Fraser - 09 - Seeds.flac'
Track 9: Ripped LBA 138901 to 156672 (3:56) in 0:07. Filename: G:\demonoid\Brooke Fraser\Albertine\Brooke Fraser - 09 - Seeds.flac
AccurateRip: Accurate (confidence 6) [Pass 1]
CRC32: CD422E76 AccurateRip CRC: 047F1429 [DiscID: 012-0014fc94-00c26f8c-a20aab0c-9]
Information ripping to FLAC, 'Track 10' to 'G:\demonoid\Brooke Fraser\Albertine\Brooke Fraser - 10 - Hosea's Wife.flac'
Track 10: Ripped LBA 156672 to 175190 (4:06) in 0:07. Filename: G:\demonoid\Brooke Fraser\Albertine\Brooke Fraser - 10 - Hosea's Wife.flac
AccurateRip: Accurate (confidence 6) [Pass 1]
CRC32: 87AFD597 AccurateRip CRC: 42A308E6 [DiscID: 012-0014fc94-00c26f8c-a20aab0c-10]
Information ripping to FLAC, 'Track 11' to 'G:\demonoid\Brooke Fraser\Albertine\Brooke Fraser - 11 - The Thief.flac'
Track 11: Ripped LBA 175190 to 190277 (3:21) in 0:05. Filename: G:\demonoid\Brooke Fraser\Albertine\Brooke Fraser - 11 - The Thief.flac
AccurateRip: Accurate (confidence 6) [Pass 1]
CRC32: 3E63F1CA AccurateRip CRC: 6A69953B [DiscID: 012-0014fc94-00c26f8c-a20aab0c-11]
Information ripping to FLAC, 'Track 12' to 'G:\demonoid\Brooke Fraser\Albertine\Brooke Fraser - 12 - Hymn.flac'
Track 12: Ripped LBA 190277 to 204874 (3:14) in 0:05. Filename: G:\demonoid\Brooke Fraser\Albertine\Brooke Fraser - 12 - Hymn.flac
AccurateRip: Accurate (confidence 6) [Pass 1]
CRC32: 667F0F16 AccurateRip CRC: 86384E82 [DiscID: 012-0014fc94-00c26f8c-a20aab0c-12]
Правила, инструкции, FAQ!!!
Торрент  Добавлен [26 мар 2019, 18:42] Скачать торрент Магнет ссылка
Скачать торрент
[ Размер 12.52 КБ / Просмотров 3 ]

Статус
Проверен 
 
Размер  286.61 МБ
Приватный: Нет (DHT включён)
.torrent скачан  0
 


     Отправить личное сообщение
   
Страница 1 из 1
Показать сообщения за:  Поле сортировки  
Начать новую тему Ответить на тему


Сейчас этот форум просматривают: нет зарегистрированных пользователей и гости: 0


Вы не можете начинать темы
Вы не можете отвечать на сообщения
Вы не можете редактировать свои сообщения
Вы не можете удалять свои сообщения
Вы не можете добавлять вложения

Перейти:  
cron