Начать новую тему Ответить на тему
Статистика раздачи
Размер: 427.6 МБ | Добавлен: 26 мар 2019, 20:35 | Скачали: 0
Сидеров: 0  [0 байт/сек]    Личеров: 0  [0 байт/сек]
Пред. тема | След. тема 

Автор
Сообщение

СообщениеДобавлено: 26 мар 2019, 20:35 

Ответить с цитатой 

America – America (1971)
Жанр: Pop Rock, Folk-Rock
Год издания: 2013
Издатель (лейбл): Audio Fidelity
Номер по каталогу: AFZ 167
Аудиокодек: FLAC (*.flac)
Тип рипа: image+.cue
Битрейт аудио: lossless
Продолжительность: 46:38
Rip by flac jacket
Наличие сканов в содержимом раздачи: да
Треклист:
01. Riverside (3:04)
02. Sandman (5:07)
03. Three Roses (3:55)
04. Children (3:07)
05. A Horse With No Name (4:13)
06. Here (5:36)
07. I Need You (3:08)
08. Rainy Day (2:55)
09. Never Found The Time (3:51)
10. Clarice (4:02)
11. Donkey Jaw (5:20)
12. Pigeon Song (2:20)
Dewey Bunnell - 6 string acoustic guitar, 12 string acoustic guitar, vocals
Gerry Beckley - 6 string acoustic guitar, piano, chimes, bass, vocals
Dan Peek - acoustic & electric guitar, piano, bass, vocals
 
Код:
Exact Audio Copy V1.0 beta 2 from 29. April 2011
EAC extraction logfile from 30. September 2013, 20:04
America / America [2013 Audio Fidelity SACD AFZ 167]
Used drive  : HL-DT-STBD-RE  BH14NS40   Adapter: 0  ID: 2
Read mode               : Secure
Utilize accurate stream : Yes
Defeat audio cache      : Yes
Make use of C2 pointers : No
Read offset correction                      : 6
Overread into Lead-In and Lead-Out          : No
Fill up missing offset samples with silence : Yes
Delete leading and trailing silent blocks   : No
Null samples used in CRC calculations       : Yes
Used interface                              : Native Win32 interface for Win NT & 2000
Used output format              : User Defined Encoder
Selected bitrate                : 1024 kBit/s
Quality                         : High
Add ID3 tag                     : No
Command line compressor         : C:\Program Files (x86)\Exact Audio Copy\Flac\flac.exe
Additional command line options : -V -5 -T "artist=%albumartist%" -T "title=%title%" -T "album=%albumtitle%" -T "date=%year%" -T "genre=%genre%" -T "tracknumber=%tracknr%" %source%
TOC of the extracted CD
     Track |   Start  |  Length  | Start sector | End sector
    ---------------------------------------------------------
        1  |  0:00.00 |  3:04.01 |         0    |    13800
        2  |  3:04.01 |  5:06.60 |     13801    |    36810
        3  |  8:10.61 |  3:55.19 |     36811    |    54454
        4  | 12:06.05 |  3:07.24 |     54455    |    68503
        5  | 15:13.29 |  4:13.20 |     68504    |    87498
        6  | 19:26.49 |  5:36.10 |     87499    |   112708
        7  | 25:02.59 |  3:07.69 |    112709    |   126802
        8  | 28:10.53 |  2:55.29 |    126803    |   139956
        9  | 31:06.07 |  3:50.40 |    139957    |   157246
       10  | 34:56.47 |  4:01.49 |    157247    |   175370
       11  | 38:58.21 |  5:19.47 |    175371    |   199342
       12  | 44:17.68 |  2:20.05 |    199343    |   209847
Range status and errors
Selected range
     Filename C:\EAC\America - (1971) America [2013 Audio Fidelity SACD AFZ 167]\America - America [2013 Audio Fidelity SACD AFZ 167].wav
     Peak level 97.7 %
     Extraction speed 6.1 X
     Range quality 100.0 %
     Test CRC 215A5361
     Copy CRC 215A5361
     Copy OK
No errors occurred
AccurateRip summary
Track  1  not present in database
Track  2  not present in database
Track  3  not present in database
Track  4  not present in database
Track  5  not present in database
Track  6  not present in database
Track  7  not present in database
Track  8  not present in database
Track  9  not present in database
Track 10  not present in database
Track 11  not present in database
Track 12  not present in database
None of the tracks are present in the AccurateRip database
End of status report
==== Log checksum 0094A93C609CF0AB604937E3183AD86A52E8103503228B7746D758379F240708 ====
Код:
REM GENRE Rock
REM DATE 1971
REM DISCID B50AED0C
REM COMMENT "ExactAudioCopy v1.0b2"
PERFORMER "America"
TITLE "America {AFZ 167}"
FILE "America - America {AFZ 167}.flac" WAVE
  TRACK 01 AUDIO
    TITLE "Riverside"
    PERFORMER "America"
    INDEX 01 00:00:00
  TRACK 02 AUDIO
    TITLE "Sandman"
    PERFORMER "America"
    INDEX 01 03:04:01
  TRACK 03 AUDIO
    TITLE "Three Roses"
    PERFORMER "America"
    INDEX 01 08:10:61
  TRACK 04 AUDIO
    TITLE "Children"
    PERFORMER "America"
    INDEX 01 12:06:05
  TRACK 05 AUDIO
    TITLE "A Horse With No Name"
    PERFORMER "America"
    INDEX 01 15:13:29
  TRACK 06 AUDIO
    TITLE "Here"
    PERFORMER "America"
    INDEX 01 19:26:49
  TRACK 07 AUDIO
    TITLE "I Need You"
    PERFORMER "America"
    INDEX 01 25:02:59
  TRACK 08 AUDIO
    TITLE "Rainy Day"
    PERFORMER "America"
    INDEX 01 28:10:53
  TRACK 09 AUDIO
    TITLE "Never Found The Time"
    PERFORMER "America"
    INDEX 01 31:06:07
  TRACK 10 AUDIO
    TITLE "Clarice"
    PERFORMER "America"
    INDEX 01 34:56:47
  TRACK 11 AUDIO
    TITLE "Donkey Jaw"
    PERFORMER "America"
    INDEX 01 38:58:21
  TRACK 12 AUDIO
    TITLE "Pigeon Song"
    PERFORMER "America"
    INDEX 01 44:17:68
Правила, инструкции, FAQ!!!
Торрент  Добавлен [26 мар 2019, 20:35] Скачать торрент Магнет ссылка
Скачать торрент
[ Размер 17.89 КБ / Просмотров 5 ]

Статус
Проверен 
 
Размер  427.6 МБ
Приватный: Нет (DHT включён)
.torrent скачан  0
 


     Отправить личное сообщение
   
Страница 1 из 1
Показать сообщения за:  Поле сортировки  
Начать новую тему Ответить на тему


Сейчас этот форум просматривают: нет зарегистрированных пользователей и гости: 0


Вы не можете начинать темы
Вы не можете отвечать на сообщения
Вы не можете редактировать свои сообщения
Вы не можете удалять свои сообщения
Вы не можете добавлять вложения

Перейти:  
cron