Начать новую тему Ответить на тему
Статистика раздачи
Размер: 451.18 МБ | Добавлен: 26 мар 2019, 19:28 | Скачали: 0
Сидеров: 0  [0 байт/сек]    Личеров: 0  [0 байт/сек]
Пред. тема | След. тема 

Автор
Сообщение

СообщениеДобавлено: 26 мар 2019, 19:28 

Ответить с цитатой 

David Haerle • Garden of Edendale





• Жанр: Pop-Rock
• Носитель: CD
• Год издания: 2018
• Издатель (лейбл) Edendale Records
• Страна исполнителя (группы): USA
• Аудиокодек: FLAC (*.flac)
• Тип рипа: tracks+.cue
• Продолжительность: 01:05:17
• Источник (релизер): internet
• Наличие сканов: all

01. Finding Natalie (00:06:12)
02. I Have A Crush (00:04:33)
03. Always (00:05:05)
04. Shining Star (00:05:06)
05. Women Make The World Go 'Round (00:04:29)
06. Tell Your Story (00:05:17)
07. The Stranger (00:04:04)
08. Do You Know Surrender? (00:05:01)
09. Play It Like The Record (00:04:34)
10. Glendale (00:05:42)
11. The Tone That Got Away (00:03:38)
12. The Tracer (00:05:17)
13. Everything I Ever Wanted (00:06:13)

Код:
-----------------------
DON'T MODIFY THIS FILE
-----------------------
PERFORMER: auCDtect Task Manager, ver. 1.5.1RC3 build 1.5.1.4
Copyright (c) 2008-2010 y-soft. All rights reserved
[url=http://y-soft.org]http://y-soft.org[/url]
ANALYZER: auCDtect: CD records authenticity detector, version 0.8.2
Copyright (c) 2004 Oleg Berngardt. All rights reserved.
Copyright (c) 2004 Alexander Djourik. All rights reserved.
FILE: 13 - Everything I Ever Wanted.flac
  Size: 43194302 Hash: 02200D29513F77BFDD63151592ADEDC7 Accuracy: -m0
  Conclusion: CDDA 100%
  Signature: 73D3B5E7A566424F9381EAB5DBD119AD592BB64F
FILE: 12 - The Tracer.flac
  Size: 37420826 Hash: 7FC9DC7536A75A4061FAEA6240E914C1 Accuracy: -m0
  Conclusion: CDDA 99%
  Signature: DE30713716996B80DEF9063D453EB8D1DA93AC1F
FILE: 11 - The Tone That Got Away.flac
  Size: 20333586 Hash: 4511251AC2E677B322EA59B43531870D Accuracy: -m0
  Conclusion: CDDA 100%
  Signature: D3F3D2728EC683E1AE9B22FC3755AA90C6C5B66D
FILE: 10 - Glendale.flac
  Size: 42230664 Hash: CDFE8C2F0F5EB0F2E071635344A411EE Accuracy: -m0
  Conclusion: CDDA 100%
  Signature: 0BF0F6BAAAE7196E3977A9B5B4DD16162CD205F6
FILE: 09 - Play It Like The Record.flac
  Size: 32524029 Hash: E167ECD85976C6F400B6A83A1FF3B565 Accuracy: -m0
  Conclusion: MPEG 95%
  Signature: 2FFCAA9A6C671A0EF202F283A6A8B267B1CB10E2
FILE: 08 - Do You Know Surrender.flac
  Size: 33994680 Hash: 20897B0559BF6229C10600CAAEA9DE4D Accuracy: -m0
  Conclusion: CDDA 100%
  Signature: 72A1618EA93788A76BD20064A3DF7289E6816409
FILE: 07 - The Stranger.flac
  Size: 23224862 Hash: 9D4D9F88A18160701811D08E5E00A6FE Accuracy: -m0
  Conclusion: CDDA 100%
  Signature: DABE3D366148A8D05D0CFD4FD2DFD30603A1AD61
FILE: 06 - Tell Your Story.flac
  Size: 35122035 Hash: 6223EED839075342E8603AB8DDD8DB63 Accuracy: -m0
  Conclusion: CDDA 100%
  Signature: 8EDAA02EFB965A104F85797ABCBEE26C43AC43E5
FILE: 05 - Women Make The World Go 'Round (ft. Bess Harrison).flac
  Size: 30752979 Hash: C8BC15EF212206E9D8D36E28F3795CFC Accuracy: -m0
  Conclusion: CDDA 100%
  Signature: 01FDC3A1CDFB9AC61982BE1B61384BD6BF612B47
FILE: 04 - Shining Star.flac
  Size: 36128302 Hash: 9A9F663F681209DBF93DA5FB67F65978 Accuracy: -m0
  Conclusion: CDDA 100%
  Signature: FD9ACEF698F722D6FA878EE75B492D02EFA67405
FILE: 03 - Always.flac
  Size: 35703513 Hash: 275CA122B2DDC9D49712190BE6585D36 Accuracy: -m0
  Conclusion: CDDA 99%
  Signature: 5644752DACDA11DC5E0FBB25AE19DC7808F9AD7F
FILE: 02 - I Have A Crush.flac
  Size: 32827295 Hash: B95C7BAEB9638FE892EFA467A9E3495F Accuracy: -m0
  Conclusion: CDDA 100%
  Signature: E70C98A13AED523B90389A14FD8BB77A46D55587
FILE: 01 - Finding Natalie.flac
  Size: 44938258 Hash: B808270B232A93DAB023FD55A59C0E5C Accuracy: -m0
  Conclusion: CDDA 100%
  Signature: 5E58DF7032AA55BB6A23E1F49F2259B30591B6CC

Код:
Exact Audio Copy V1.3 from 2. September 2016
EAC extraction logfile from 6. June 2018, 17:37
David Haerle / Garden of Edendale
Used drive  : TSSTcorpCDDVDW TS-H653N   Adapter: 1  ID: 0
Read mode               : Secure
Utilize accurate stream : Yes
Defeat audio cache      : Yes
Make use of C2 pointers : No
Read offset correction                      : 6
Overread into Lead-In and Lead-Out          : No
Fill up missing offset samples with silence : Yes
Delete leading and trailing silent blocks   : No
Null samples used in CRC calculations       : Yes
Used interface                              : Native Win32 interface for Win NT & 2000
Gap handling                                : Appended to previous track
Used output format              : User Defined Encoder
Selected bitrate                : 1024 kBit/s
Quality                         : High
Add ID3 tag                     : No
Command line compressor         : C:\Program Files (x86)\Exact Audio Copy\Flac\flac.exe
Additional command line options : -8 -V -T "ARTIST=%artist%" -T "TITLE=%title%" -T "ALBUM=%albumtitle%" -T "DATE=%year%" -T "TRACKNUMBER=%tracknr%" -T "TOTALTRACKS=%numtracks%" -T "GENRE=%genre%" -T "ALBUMARTIST=%albumartist%" -T "ALBUM ARTIST=%albumartist%" -T "COMMENT=EAC Secure Mode, Test & Copy, AccurateRip, FLAC -8" %source%
TOC of the extracted CD
     Track |   Start  |  Length  | Start sector | End sector
    ---------------------------------------------------------
        1  |  0:00.00 |  6:12.62 |         0    |    27961
        2  |  6:12.62 |  4:33.29 |     27962    |    48465
        3  | 10:46.16 |  5:05.21 |     48466    |    71361
        4  | 15:51.37 |  5:06.32 |     71362    |    94343
        5  | 20:57.69 |  4:29.64 |     94344    |   114582
        6  | 25:27.58 |  5:17.70 |    114583    |   138427
        7  | 30:45.53 |  4:04.06 |    138428    |   156733
        8  | 34:49.59 |  5:01.44 |    156734    |   179352
        9  | 39:51.28 |  4:34.15 |    179353    |   199917
       10  | 44:25.43 |  5:42.39 |    199918    |   225606
       11  | 50:08.07 |  3:38.57 |    225607    |   242013
       12  | 53:46.64 |  5:17.43 |    242014    |   265831
       13  | 59:04.32 |  6:13.32 |    265832    |   293838
Track  1
     Filename C:\That is the question\David Haerle - Garden of Edendale (2018) [FLAC] {CD 5001}\01 - Finding Natalie.wav
     Pre-gap length  0:00:02.00
     Peak level 100.0 %
     Extraction speed 1.7 X
     Track quality 99.9 %
     Test CRC 42FB756A
     Copy CRC 42FB756A
     Track not present in AccurateRip database
     Copy OK
Track  2
     Filename C:\That is the question\David Haerle - Garden of Edendale (2018) [FLAC] {CD 5001}\02 - I Have A Crush.wav
     Pre-gap length  0:00:00.72
     Peak level 100.0 %
     Extraction speed 2.0 X
     Track quality 100.0 %
     Test CRC B23AF901
     Copy CRC B23AF901
     Track not present in AccurateRip database
     Copy OK
Track  3
     Filename C:\That is the question\David Haerle - Garden of Edendale (2018) [FLAC] {CD 5001}\03 - Always.wav
     Pre-gap length  0:00:00.70
     Peak level 100.0 %
     Extraction speed 2.3 X
     Track quality 100.0 %
     Test CRC 560A3656
     Copy CRC 560A3656
     Track not present in AccurateRip database
     Copy OK
Track  4
     Filename C:\That is the question\David Haerle - Garden of Edendale (2018) [FLAC] {CD 5001}\04 - Shining Star.wav
     Pre-gap length  0:00:00.58
     Peak level 100.0 %
     Extraction speed 2.1 X
     Track quality 99.9 %
     Test CRC D4835839
     Copy CRC D4835839
     Track not present in AccurateRip database
     Copy OK
Track  5
     Filename C:\That is the question\David Haerle - Garden of Edendale (2018) [FLAC] {CD 5001}\05 - Women Make The World Go 'Round.wav
     Pre-gap length  0:00:01.11
     Peak level 100.0 %
     Extraction speed 2.6 X
     Track quality 100.0 %
     Test CRC 48ABCB01
     Copy CRC 48ABCB01
     Track not present in AccurateRip database
     Copy OK
Track  6
     Filename C:\That is the question\David Haerle - Garden of Edendale (2018) [FLAC] {CD 5001}\06 - Tell Your Story.wav
     Pre-gap length  0:00:02.56
     Peak level 100.0 %
     Extraction speed 2.8 X
     Track quality 100.0 %
     Test CRC BF1061D6
     Copy CRC BF1061D6
     Track not present in AccurateRip database
     Copy OK
Track  7
     Filename C:\That is the question\David Haerle - Garden of Edendale (2018) [FLAC] {CD 5001}\07 - The Stranger.wav
     Peak level 100.0 %
     Extraction speed 2.9 X
     Track quality 100.0 %
     Test CRC 60FBC76F
     Copy CRC 60FBC76F
     Track not present in AccurateRip database
     Copy OK
Track  8
     Filename C:\That is the question\David Haerle - Garden of Edendale (2018) [FLAC] {CD 5001}\08 - Do You Know Surrender.wav
     Pre-gap length  0:00:01.23
     Peak level 100.0 %
     Extraction speed 3.1 X
     Track quality 100.0 %
     Test CRC 5317474D
     Copy CRC 5317474D
     Track not present in AccurateRip database
     Copy OK
Track  9
     Filename C:\That is the question\David Haerle - Garden of Edendale (2018) [FLAC] {CD 5001}\09 - Play It Like The Record.wav
     Pre-gap length  0:00:02.14
     Peak level 100.0 %
     Extraction speed 2.5 X
     Track quality 99.9 %
     Test CRC 4ADBA567
     Copy CRC 4ADBA567
     Track not present in AccurateRip database
     Copy OK
Track 10
     Filename C:\That is the question\David Haerle - Garden of Edendale (2018) [FLAC] {CD 5001}\10 - Glendale.wav
     Pre-gap length  0:00:01.25
     Peak level 100.0 %
     Extraction speed 3.4 X
     Track quality 100.0 %
     Test CRC 67C99E18
     Copy CRC 67C99E18
     Track not present in AccurateRip database
     Copy OK
Track 11
     Filename C:\That is the question\David Haerle - Garden of Edendale (2018) [FLAC] {CD 5001}\11 - The Tone That Got Away.wav
     Pre-gap length  0:00:01.33
     Peak level 99.2 %
     Extraction speed 2.5 X
     Track quality 99.9 %
     Test CRC F276A853
     Copy CRC F276A853
     Track not present in AccurateRip database
     Copy OK
Track 12
     Filename C:\That is the question\David Haerle - Garden of Edendale (2018) [FLAC] {CD 5001}\12 - The Tracer.wav
     Pre-gap length  0:00:02.24
     Peak level 100.0 %
     Extraction speed 3.6 X
     Track quality 100.0 %
     Test CRC AF06A933
     Copy CRC AF06A933
     Track not present in AccurateRip database
     Copy OK
Track 13
     Filename C:\That is the question\David Haerle - Garden of Edendale (2018) [FLAC] {CD 5001}\13 - Everything I Ever Wanted.wav
     Pre-gap length  0:00:03.01
     Peak level 100.0 %
     Extraction speed 3.8 X
     Track quality 100.0 %
     Test CRC ACEDE11D
     Copy CRC ACEDE11D
     Track not present in AccurateRip database
     Copy OK
None of the tracks are present in the AccurateRip database
No errors occurred
End of status report
---- CUETools DB Plugin V2.1.6
[CTDB TOCID: mzdB_RR1qZ9DyWZLKfKJElO73qk-] disk not present in database
Submit result: mzdB_RR1qZ9DyWZLKfKJElO73qk- has been uploaded
==== Log checksum 3D86E2F38EA73048FF95AB89EB50E9405C9F3CD8C5EE01486FD6C8D979783EEA ====

Код:
REM GENRE Rock
REM DATE 2018
REM DISCID C00F4D0D
REM COMMENT "ExactAudioCopy v1.3"
CATALOG 0027297500129
PERFORMER "David Haerle"
TITLE "Garden of Edendale"
REM COMPOSER ""
FILE "01 - Finding Natalie.wav" WAVE
  TRACK 01 AUDIO
    TITLE "Finding Natalie"
    PERFORMER "David Haerle"
    REM COMPOSER ""
    ISRC EMQ3X1200018
    INDEX 01 00:00:00
  TRACK 02 AUDIO
    TITLE "I Have A Crush"
    PERFORMER "David Haerle"
    REM COMPOSER ""
    ISRC EMQ3X1200030
    INDEX 00 06:11:65
FILE "02 - I Have A Crush.wav" WAVE
    INDEX 01 00:00:00
  TRACK 03 AUDIO
    TITLE "Always"
    PERFORMER "David Haerle"
    REM COMPOSER ""
    ISRC EMQ3X1200027
    INDEX 00 04:32:34
FILE "03 - Always.wav" WAVE
    INDEX 01 00:00:00
  TRACK 04 AUDIO
    TITLE "Shining Star"
    PERFORMER "David Haerle"
    REM COMPOSER ""
    ISRC EMQ3X1200033
    INDEX 00 05:04:38
FILE "04 - Shining Star.wav" WAVE
    INDEX 01 00:00:00
  TRACK 05 AUDIO
    TITLE "Women Make The World Go 'Round"
    PERFORMER "David Haerle"
    REM COMPOSER ""
    ISRC EMQ3X1200012
    INDEX 00 05:05:21
FILE "05 - Women Make The World Go 'Round (ft. Bess Harrison).wav" WAVE
    INDEX 01 00:00:00
  TRACK 06 AUDIO
    TITLE "Tell Your Story"
    PERFORMER "David Haerle"
    REM COMPOSER ""
    ISRC EMQ3X1200039
    INDEX 00 04:27:08
FILE "06 - Tell Your Story.wav" WAVE
    INDEX 01 00:00:00
FILE "07 - The Stranger.wav" WAVE
  TRACK 07 AUDIO
    TITLE "The Stranger"
    PERFORMER "David Haerle"
    REM COMPOSER ""
    ISRC EMQ3X1200042
    INDEX 01 00:00:00
  TRACK 08 AUDIO
    TITLE "Do You Know Surrender?"
    PERFORMER "David Haerle"
    REM COMPOSER ""
    ISRC EMQ3X1200044
    INDEX 00 04:02:58
FILE "08 - Do You Know Surrender.wav" WAVE
    INDEX 01 00:00:00
  TRACK 09 AUDIO
    TITLE "Play It Like The Record"
    PERFORMER "David Haerle"
    REM COMPOSER ""
    ISRC EMQ3X1200047
    INDEX 00 04:59:30
FILE "09 - Play It Like The Record.wav" WAVE
    INDEX 01 00:00:00
  TRACK 10 AUDIO
    TITLE "Glendale"
    PERFORMER "David Haerle"
    REM COMPOSER ""
    ISRC EMQ3X1200056
    INDEX 00 04:32:65
FILE "10 - Glendale.wav" WAVE
    INDEX 01 00:00:00
  TRACK 11 AUDIO
    TITLE "The Tone That Got Away"
    PERFORMER "David Haerle"
    REM COMPOSER ""
    ISRC EMQ3X1200055
    INDEX 00 05:41:06
FILE "11 - The Tone That Got Away.wav" WAVE
    INDEX 01 00:00:00
  TRACK 12 AUDIO
    TITLE "The Tracer"
    PERFORMER "David Haerle"
    REM COMPOSER ""
    ISRC EMQ3X1200059
    INDEX 00 03:36:33
FILE "12 - The Tracer.wav" WAVE
    INDEX 01 00:00:00
  TRACK 13 AUDIO
    TITLE "Everything I Ever Wanted"
    PERFORMER "David Haerle"
    REM COMPOSER ""
    ISRC EMQ3X1200062
    INDEX 00 05:14:42
FILE "13 - Everything I Ever Wanted.wav" WAVE
    INDEX 01 00:00:00


Правила, инструкции, FAQ!!!
Торрент  Добавлен [26 мар 2019, 19:28] Скачать торрент Магнет ссылка
Скачать торрент
[ Размер 19.85 КБ / Просмотров 1 ]

Статус
Проверен 
 
Размер  451.18 МБ
Приватный: Нет (DHT включён)
.torrent скачан  0
 


     Отправить личное сообщение
   
Страница 1 из 1
Показать сообщения за:  Поле сортировки  
Начать новую тему Ответить на тему


Сейчас этот форум просматривают: нет зарегистрированных пользователей и гости: 0


Вы не можете начинать темы
Вы не можете отвечать на сообщения
Вы не можете редактировать свои сообщения
Вы не можете удалять свои сообщения
Вы не можете добавлять вложения

Перейти:  
cron