Начать новую тему Ответить на тему
Статистика раздачи
Размер: 287.72 МБ | Добавлен: 26 мар 2019, 19:44 | Скачали: 0
Сидеров: 2  [0 байт/сек]    Личеров: 0  [0 байт/сек]
Пред. тема | След. тема 

Автор
Сообщение

СообщениеДобавлено: 26 мар 2019, 19:44 

Ответить с цитатой 

Charlie Winston / Make Way
Жанр: Pop-Rock, Folk
Носитель: CD
Страна-производитель диска (релиза): UK
Год издания: 2007
Издатель (лейбл): Real World Records ‎
Номер по каталогу: RWLT001
Аудиокодек: FLAC (*.flac)
Тип рипа: tracks+.cue
Битрейт аудио: lossless
Продолжительность: 00:53:56
Источник (релизер): локальная сеть
Наличие сканов в содержимом раздачи: нет
Треклист:
1 Like A Hobo 5:07
2 Generation Spent 3:37
3 Boxes 4:36
4 9 Yr Old Friend 3:33
5 My Life As A Duck 4:47
6 I Love Your Smile 4:59
7 Yes! 4:05
8 Life's A Bitch 4:55
9 Can We Do It? 4:16
10.1 Calling Me 5:03
10.2 Gone Gone 4:08
Код:
Exact Audio Copy V1.0 beta 3 from 29. August 2011
EAC extraction logfile from 17. July 2014, 14:08
Charlie Winston / Make Way
Used drive  : ASUS    DRW-24B3ST   Adapter: 0  ID: 0
Read mode               : Secure
Utilize accurate stream : Yes
Defeat audio cache      : Yes
Make use of C2 pointers : No
Read offset correction                      : 6
Overread into Lead-In and Lead-Out          : No
Fill up missing offset samples with silence : Yes
Delete leading and trailing silent blocks   : No
Null samples used in CRC calculations       : Yes
Used interface                              : Native Win32 interface for Win NT & 2000
Gap handling                                : Appended to previous track
Used output format              : User Defined Encoder
Selected bitrate                : 896 kBit/s
Quality                         : High
Add ID3 tag                     : No
Command line compressor         : C:\Program Files (x86)\Exact Audio Copy\FLAC\FLAC.EXE
Additional command line options : -8 -V -T "ARTIST=%artist%" -T "TITLE=%title%" -T "ALBUM=%albumtitle%" -T "DATE=%year%" -T "TRACKNUMBER=%tracknr%" -T "GENRE=%genre%" -T "PERFORMER=%albuminterpret%" -T "COMPOSER=%composer%" %haslyrics%--tag-from-file=LYRICS="%lyricsfile%"%haslyrics% -T "ALBUMARTIST=%albumartist%" -T "DISCNUMBER=%cdnumber%" -T "TOTALDISCS=%totalcds%" -T "TOTALTRACKS=%numtracks%" -T "COMMENT=%comment%" %source% -o %dest%
TOC of the extracted CD
     Track |   Start  |  Length  | Start sector | End sector
    ---------------------------------------------------------
        1  |  0:00.00 |  5:07.34 |         0    |    23058
        2  |  5:07.34 |  3:37.67 |     23059    |    39400
        3  |  8:45.26 |  4:36.00 |     39401    |    60100
        4  | 13:21.26 |  3:33.66 |     60101    |    76141
        5  | 16:55.17 |  4:47.68 |     76142    |    97734
        6  | 21:43.10 |  4:59.09 |     97735    |   120168
        7  | 26:42.19 |  4:05.70 |    120169    |   138613
        8  | 30:48.14 |  4:55.58 |    138614    |   160796
        9  | 35:43.72 |  4:16.65 |    160797    |   180061
       10  | 40:00.62 | 14:01.12 |    180062    |   243148
Track  1
     Filename E:\Musik\Charlie Winston\[2007] Make Way\01. Like A Hobo.wav
     Pre-gap length  0:00:02.00
     Peak level 100.0 %
     Extraction speed 3.5 X
     Track quality 100.0 %
     Test CRC BB32D7CE
     Copy CRC BB32D7CE
     Accurately ripped (confidence 1)  [2A429EF5]  (AR v2)
     Copy OK
Track  2
     Filename E:\Musik\Charlie Winston\[2007] Make Way\02. Generation Spent.wav
     Peak level 100.0 %
     Extraction speed 3.8 X
     Track quality 100.0 %
     Test CRC 73CE94A4
     Copy CRC 73CE94A4
     Accurately ripped (confidence 1)  [617EFCDE]  (AR v2)
     Copy OK
Track  3
     Filename E:\Musik\Charlie Winston\[2007] Make Way\03. Boxes.wav
     Peak level 93.5 %
     Extraction speed 4.3 X
     Track quality 100.0 %
     Test CRC 99D3FF0E
     Copy CRC 99D3FF0E
     Accurately ripped (confidence 1)  [CB1F24C4]  (AR v2)
     Copy OK
Track  4
     Filename E:\Musik\Charlie Winston\[2007] Make Way\04. 9 Yr Old Friend.wav
     Peak level 99.6 %
     Extraction speed 4.4 X
     Track quality 100.0 %
     Test CRC 2477EB08
     Copy CRC 2477EB08
     Accurately ripped (confidence 1)  [A36F0FAF]  (AR v2)
     Copy OK
Track  5
     Filename E:\Musik\Charlie Winston\[2007] Make Way\05. My Life As A Duck.wav
     Peak level 79.4 %
     Extraction speed 4.9 X
     Track quality 100.0 %
     Test CRC 494ED9D4
     Copy CRC 494ED9D4
     Accurately ripped (confidence 1)  [D3F793CD]  (AR v2)
     Copy OK
Track  6
     Filename E:\Musik\Charlie Winston\[2007] Make Way\06. I Love Your Smile.wav
     Peak level 100.0 %
     Extraction speed 4.4 X
     Track quality 99.9 %
     Test CRC 1C3669CF
     Copy CRC 1C3669CF
     Accurately ripped (confidence 1)  [1D4B892D]  (AR v2)
     Copy OK
Track  7
     Filename E:\Musik\Charlie Winston\[2007] Make Way\07. Yes!.wav
     Peak level 78.2 %
     Extraction speed 5.5 X
     Track quality 100.0 %
     Test CRC 5B832CC0
     Copy CRC 5B832CC0
     Accurately ripped (confidence 1)  [99FA4521]  (AR v2)
     Copy OK
Track  8
     Filename E:\Musik\Charlie Winston\[2007] Make Way\08. Life's A Bitch.wav
     Peak level 99.9 %
     Extraction speed 4.8 X
     Track quality 99.9 %
     Test CRC E62B26BA
     Copy CRC E62B26BA
     Accurately ripped (confidence 1)  [1A8211B5]  (AR v1)
     Copy OK
Track  9
     Filename E:\Musik\Charlie Winston\[2007] Make Way\09. Can We Do It.wav
     Peak level 87.6 %
     Extraction speed 6.0 X
     Track quality 100.0 %
     Test CRC 24FFE71E
     Copy CRC 24FFE71E
     Accurately ripped (confidence 1)  [C79DE721]  (AR v1)
     Copy OK
Track 10
     Filename E:\Musik\Charlie Winston\[2007] Make Way\10. Calling Me , Gone Gone.wav
     Peak level 98.3 %
     Extraction speed 7.1 X
     Track quality 100.0 %
     Test CRC 9FE00E29
     Copy CRC 9FE00E29
     Accurately ripped (confidence 1)  [1CFEC0AC]  (AR v2)
     Copy OK
All tracks accurately ripped
No errors occurred
End of status report
==== Log checksum 9CE7D68464698A7D088DD9214620EE0DFF667876B011DE99B24507C810ECB674 ====
Код:
REM GENRE Folk
REM DATE 2007
REM DISCID 660CA90A
REM COMMENT "ExactAudioCopy v1.0b3"
PERFORMER "Charlie Winston"
TITLE "Make Way"
FILE "01. Like A Hobo.wav" WAVE
  TRACK 01 AUDIO
    TITLE "Like A Hobo"
    PERFORMER "Charlie Winston"
    INDEX 01 00:00:00
FILE "02. Generation Spent.wav" WAVE
  TRACK 02 AUDIO
    TITLE "Generation Spent"
    PERFORMER "Charlie Winston"
    INDEX 01 00:00:00
FILE "03. Boxes.wav" WAVE
  TRACK 03 AUDIO
    TITLE "Boxes"
    PERFORMER "Charlie Winston"
    INDEX 01 00:00:00
FILE "04. 9 Yr Old Friend.wav" WAVE
  TRACK 04 AUDIO
    TITLE "9 Yr Old Friend"
    PERFORMER "Charlie Winston"
    INDEX 01 00:00:00
FILE "05. My Life As A Duck.wav" WAVE
  TRACK 05 AUDIO
    TITLE "My Life As A Duck"
    PERFORMER "Charlie Winston"
    INDEX 01 00:00:00
FILE "06. I Love Your Smile.wav" WAVE
  TRACK 06 AUDIO
    TITLE "I Love Your Smile"
    PERFORMER "Charlie Winston"
    INDEX 01 00:00:00
FILE "07. Yes!.wav" WAVE
  TRACK 07 AUDIO
    TITLE "Yes!"
    PERFORMER "Charlie Winston"
    INDEX 01 00:00:00
FILE "08. Life's A Bitch.wav" WAVE
  TRACK 08 AUDIO
    TITLE "Life's A Bitch"
    PERFORMER "Charlie Winston"
    INDEX 01 00:00:00
FILE "09. Can We Do It.wav" WAVE
  TRACK 09 AUDIO
    TITLE "Can We Do It?"
    PERFORMER "Charlie Winston"
    INDEX 01 00:00:00
FILE "10. Calling Me , Gone Gone.wav" WAVE
  TRACK 10 AUDIO
    TITLE "Calling Me / Gone Gone"
    PERFORMER "Charlie Winston"
    INDEX 01 00:00:00
Правила, инструкции, FAQ!!!
Торрент  Добавлен [26 мар 2019, 19:44] Скачать торрент Магнет ссылка
Скачать торрент
[ Размер 12.34 КБ / Просмотров 3 ]

Статус
Проверен 
 
Размер  287.72 МБ
Приватный: Нет (DHT включён)
.torrent скачан  0
 


     Отправить личное сообщение
   
Страница 1 из 1
Показать сообщения за:  Поле сортировки  
Начать новую тему Ответить на тему


Сейчас этот форум просматривают: нет зарегистрированных пользователей и гости: 0


Вы не можете начинать темы
Вы не можете отвечать на сообщения
Вы не можете редактировать свои сообщения
Вы не можете удалять свои сообщения
Вы не можете добавлять вложения

Перейти:  
cron