Начать новую тему Ответить на тему
Статистика раздачи
Размер: 220.13 МБ | Добавлен: 26 мар 2019, 18:54 | Скачали: 0
Сидеров: 0  [0 байт/сек]    Личеров: 0  [0 байт/сек]
Пред. тема | След. тема 

Автор
Сообщение

СообщениеДобавлено: 26 мар 2019, 18:54 

Ответить с цитатой 

A Balladeer - I Can't Keep Track Of Each Fallen Robin
Жанр: Pop-Rock, Folk, Acoustic
Страна-производитель диска: Netherlands
Год издания диска: 2012
Издатель (лейбл): Stemra
Номер по каталогу: AB0007
Страна: Netherlands
Аудио кодек: FLAC (*.flac)
Тип рипа: tracks+.cue
Битрейт аудио: lossless
Продолжительность: 00:39:14
Источник (релизер): Суслик
Наличие сканов в содержимом раздачи: да
Треклист:
01. My I'm Sorry Song To You 02:26
02. Questionnaire 02:54
03. Sleepover 04:04
04. Robin 00:59
05. Our Song 03:03
06. Karaoke Night 04:42
07. Good Year For The Papers 03:19
08. 5 Minutes Beside A Hospital Bed 03:29
09. Tarot, Tequila 06:52
10. For Isabelle 02:25
11. Grandpas Sprinkler 03:50
12. Little Lullaby 01:11
Код:
Exact Audio Copy V1.0 beta 2 from 29. April 2011
EAC extraction logfile from 22. November 2012, 22:53
A Balladeer / I Can't Keep Track Of Each Fallen Robin
Used drive  : HL-DT-STDVD-RAM GH22LP20   Adapter: 0  ID: 0
Read mode               : Secure
Utilize accurate stream : Yes
Defeat audio cache      : Yes
Make use of C2 pointers : No
Read offset correction                      : 102
Overread into Lead-In and Lead-Out          : No
Fill up missing offset samples with silence : Yes
Delete leading and trailing silent blocks   : No
Null samples used in CRC calculations       : Yes
Used interface                              : Installed external ASPI interface
Gap handling                                : Appended to previous track
Used output format              : User Defined Encoder
Selected bitrate                : 256 kBit/s
Quality                         : High
Add ID3 tag                     : No
Command line compressor         : C:\Program Files\Exact Audio Copy\FLAC\FLAC.EXE
Additional command line options : -8 -V -T "ARTIST=%artist%" -T "TITLE=%title%" -T "ALBUM=%albumtitle%" -T "DATE=%year%" -T "TRACKNUMBER=%tracknr%" -T "GENRE=%genre%" -T "COMMENT=%comment%" %hascover%--picture="%coverfile%"%hascover% %source% -o %dest%
TOC of the extracted CD
     Track |   Start  |  Length  | Start sector | End sector
    ---------------------------------------------------------
        1  |  0:00.00 |  2:26.20 |         0    |    10969
        2  |  2:26.20 |  2:53.68 |     10970    |    24012
        3  |  5:20.13 |  4:03.58 |     24013    |    42295
        4  |  9:23.71 |  0:59.02 |     42296    |    46722
        5  | 10:22.73 |  3:02.51 |     46723    |    60423
        6  | 13:25.49 |  4:41.45 |     60424    |    81543
        7  | 18:07.19 |  3:18.70 |     81544    |    96463
        8  | 21:26.14 |  3:28.57 |     96464    |   112120
        9  | 24:54.71 |  6:51.63 |    112121    |   143008
       10  | 31:46.59 |  2:25.06 |    143009    |   153889
       11  | 34:11.65 |  3:50.15 |    153890    |   171154
       12  | 38:02.05 |  1:11.30 |    171155    |   176509
Track  1
     Filename I:\Torrents 2\A Balladeer - I Can't Track Of Each Fallen Robin (2012) [FLAC]\01 - My I'm Sorry Song To You.wav
     Pre-gap length  0:00:02.00
     Peak level 100.0 %
     Extraction speed 1.4 X
     Track quality 100.0 %
     Test CRC AF15FA11
     Copy CRC AF15FA11
     Track not present in AccurateRip database
     Copy OK
Track  2
     Filename I:\Torrents 2\A Balladeer - I Can't Track Of Each Fallen Robin (2012) [FLAC]\02 - Questionnaire.wav
     Pre-gap length  0:00:01.74
     Peak level 79.4 %
     Extraction speed 1.5 X
     Track quality 100.0 %
     Test CRC 4112E98E
     Copy CRC 4112E98E
     Track not present in AccurateRip database
     Copy OK
Track  3
     Filename I:\Torrents 2\A Balladeer - I Can't Track Of Each Fallen Robin (2012) [FLAC]\03 - Sleepover.wav
     Peak level 98.8 %
     Extraction speed 1.8 X
     Track quality 100.0 %
     Test CRC CF9134B5
     Copy CRC CF9134B5
     Track not present in AccurateRip database
     Copy OK
Track  4
     Filename I:\Torrents 2\A Balladeer - I Can't Track Of Each Fallen Robin (2012) [FLAC]\04 - Robin.wav
     Pre-gap length  0:00:01.74
     Peak level 57.8 %
     Extraction speed 1.3 X
     Track quality 100.0 %
     Test CRC 32D35721
     Copy CRC 32D35721
     Track not present in AccurateRip database
     Copy OK
Track  5
     Filename I:\Torrents 2\A Balladeer - I Can't Track Of Each Fallen Robin (2012) [FLAC]\05 - Our Song.wav
     Peak level 100.0 %
     Extraction speed 1.9 X
     Track quality 100.0 %
     Test CRC F5870993
     Copy CRC F5870993
     Track not present in AccurateRip database
     Copy OK
Track  6
     Filename I:\Torrents 2\A Balladeer - I Can't Track Of Each Fallen Robin (2012) [FLAC]\06 - Karaoke Night.wav
     Peak level 98.8 %
     Extraction speed 2.2 X
     Track quality 100.0 %
     Test CRC 1F4BE8A6
     Copy CRC 1F4BE8A6
     Track not present in AccurateRip database
     Copy OK
Track  7
     Filename I:\Torrents 2\A Balladeer - I Can't Track Of Each Fallen Robin (2012) [FLAC]\07 - Good Year For The Papers.wav
     Pre-gap length  0:00:00.73
     Peak level 98.8 %
     Extraction speed 2.2 X
     Track quality 100.0 %
     Test CRC 262351AA
     Copy CRC 262351AA
     Track not present in AccurateRip database
     Copy OK
Track  8
     Filename I:\Torrents 2\A Balladeer - I Can't Track Of Each Fallen Robin (2012) [FLAC]\08 - 5 Minutes Beside A Hospital Bed.wav
     Pre-gap length  0:00:01.74
     Peak level 98.8 %
     Extraction speed 2.3 X
     Track quality 100.0 %
     Test CRC 5CD1CDFA
     Copy CRC 5CD1CDFA
     Track not present in AccurateRip database
     Copy OK
Track  9
     Filename I:\Torrents 2\A Balladeer - I Can't Track Of Each Fallen Robin (2012) [FLAC]\09 - Tarot, Tequila.wav
     Peak level 98.8 %
     Extraction speed 2.7 X
     Track quality 100.0 %
     Test CRC 1383DC19
     Copy CRC 1383DC19
     Track not present in AccurateRip database
     Copy OK
Track 10
     Filename I:\Torrents 2\A Balladeer - I Can't Track Of Each Fallen Robin (2012) [FLAC]\10 - For Isabelle.wav
     Pre-gap length  0:00:01.74
     Peak level 99.9 %
     Extraction speed 2.0 X
     Track quality 99.9 %
     Test CRC 0E2F1E50
     Copy CRC 0E2F1E50
     Track not present in AccurateRip database
     Copy OK
Track 11
     Filename I:\Torrents 2\A Balladeer - I Can't Track Of Each Fallen Robin (2012) [FLAC]\11 - Grandpas Sprinkler.wav
     Pre-gap length  0:00:01.74
     Peak level 98.8 %
     Extraction speed 2.7 X
     Track quality 100.0 %
     Test CRC 69CE9AB4
     Copy CRC 69CE9AB4
     Track not present in AccurateRip database
     Copy OK
Track 12
     Filename I:\Torrents 2\A Balladeer - I Can't Track Of Each Fallen Robin (2012) [FLAC]\12 - Little Lullaby.wav
     Pre-gap length  0:00:01.74
     Peak level 41.1 %
     Extraction speed 1.5 X
     Track quality 99.8 %
     Test CRC CA004482
     Copy CRC CA004482
     Track not present in AccurateRip database
     Copy OK
None of the tracks are present in the AccurateRip database
No errors occurred
End of status report
==== Log checksum 85B084009FF5395422BDC099DBB6613F21B890CA27BDB69F531290D8FE1AAC54 ====
Код:
REM DATE 2012
REM DISCID A609310C
REM COMMENT "ExactAudioCopy v1.0b2"
PERFORMER "A Balladeer"
TITLE "I Can't Keep Track Of Each Fallen Robin"
FILE "01 - My I'm Sorry Song To You.wav" WAVE
  TRACK 01 AUDIO
    TITLE "My I'm Sorry Song To You"
    PERFORMER "A Balladeer"
    INDEX 01 00:00:00
  TRACK 02 AUDIO
    TITLE "Questionnaire"
    PERFORMER "A Balladeer"
    INDEX 00 02:24:21
FILE "02 - Questionnaire.wav" WAVE
    INDEX 01 00:00:00
FILE "03 - Sleepover.wav" WAVE
  TRACK 03 AUDIO
    TITLE "Sleepover"
    PERFORMER "A Balladeer"
    INDEX 01 00:00:00
  TRACK 04 AUDIO
    TITLE "Robin"
    PERFORMER "A Balladeer"
    INDEX 00 04:01:59
FILE "04 - Robin.wav" WAVE
    INDEX 01 00:00:00
FILE "05 - Our Song.wav" WAVE
  TRACK 05 AUDIO
    TITLE "Our Song"
    PERFORMER "A Balladeer"
    INDEX 01 00:00:00
FILE "06 - Karaoke Night.wav" WAVE
  TRACK 06 AUDIO
    TITLE "Karaoke Night"
    PERFORMER "A Balladeer"
    INDEX 01 00:00:00
  TRACK 07 AUDIO
    TITLE "Good Year For The Papers"
    PERFORMER "A Balladeer"
    INDEX 00 04:40:47
FILE "07 - Good Year For The Papers.wav" WAVE
    INDEX 01 00:00:00
  TRACK 08 AUDIO
    TITLE "5 Minutes Beside A Hospital Bed"
    PERFORMER "A Balladeer"
    INDEX 00 03:16:71
FILE "08 - 5 Minutes Beside A Hospital Bed.wav" WAVE
    INDEX 01 00:00:00
FILE "09 - Tarot, Tequila.wav" WAVE
  TRACK 09 AUDIO
    TITLE "Tarot, Tequila"
    PERFORMER "A Balladeer"
    INDEX 01 00:00:00
  TRACK 10 AUDIO
    TITLE "For Isabelle"
    PERFORMER "A Balladeer"
    INDEX 00 06:49:64
FILE "10 - For Isabelle.wav" WAVE
    INDEX 01 00:00:00
  TRACK 11 AUDIO
    TITLE "Grandpas Sprinkler"
    PERFORMER "A Balladeer"
    INDEX 00 02:23:07
FILE "11 - Grandpas Sprinkler.wav" WAVE
    INDEX 01 00:00:00
  TRACK 12 AUDIO
    TITLE "Little Lullaby"
    PERFORMER "A Balladeer"
    INDEX 00 03:48:16
FILE "12 - Little Lullaby.wav" WAVE
    INDEX 01 00:00:00
Код:
-----------------------
DON'T MODIFY THIS FILE
-----------------------
PERFORMER: auCDtect Task Manager, ver. 1.5.1RC4 build 1.5.1.5
Copyright (c) 2008-2010 y-soft. All rights reserved
[url=http://y-soft.org]http://y-soft.org[/url]
ANALYZER: auCDtect: CD records authenticity detector, version 0.8.2
Copyright (c) 2004 Oleg Berngardt. All rights reserved.
Copyright (c) 2004 Alexander Djourik. All rights reserved.
FILE: 12 - Little Lullaby.flac
  Size: 4584278 Hash: 8AE58A6E884707AD1E70ABF07C65568A Accuracy: -m8
  Conclusion: CDDA 42%
  Signature: E20837C0C8CD6247033A47D1D9C6C01C2932BDF3
FILE: 11 - Grandpas Sprinkler.flac
  Size: 22038159 Hash: 3DB60374A65647552F4B68540D49AF6E Accuracy: -m8
  Conclusion: CDDA 99%
  Signature: 8727FAAC5CFF3755E7F9E3A6A2924A91236941C8
FILE: 10 - For Isabelle.flac
  Size: 10943059 Hash: 0E1E4290F2FF59512FF273A5DAAC6870 Accuracy: -m8
  Conclusion: CDDA 100%
  Signature: D5968612BB907B19D116E241E96DD59CC8B1337B
FILE: 09 - Tarot, Tequila.flac
  Size: 44748132 Hash: A644DCF02B481078D56AA3E99AA0E5A7 Accuracy: -m8
  Conclusion: CDDA 100%
  Signature: AFB7189DB0B2141CAA45648482AF0E7BE498B92E
FILE: 08 - 5 Minutes Beside A Hospital Bed.flac
  Size: 21329848 Hash: F24E7E3750F07FA2D8C66BF873EC100A Accuracy: -m8
  Conclusion: CDDA 100%
  Signature: C2C2E967005190B49AFD4BBE1776FD66E1AFE830
FILE: 07 - Good Year For The Papers.flac
  Size: 22375701 Hash: A3E2E6A6F62ED83FA92775A732D6762E Accuracy: -m8
  Conclusion: CDDA 100%
  Signature: 204A24AA41F39A1AE1C7FA2E9A3EE328A4294F4E
FILE: 06 - Karaoke Night.flac
  Size: 27704923 Hash: 5DCD5D68EED542F66567FD1FA6B15269 Accuracy: -m8
  Conclusion: CDDA 100%
  Signature: 22F07DA75552A4B9CE15DDCACF7E8038E3EA17DF
FILE: 05 - Our Song.flac
  Size: 15048604 Hash: 04B2DE0B9FA1DE398670B077D8FB89A8 Accuracy: -m8
  Conclusion: CDDA 100%
  Signature: 233F9D5E74B28576C87565834159BEA666BF094C
FILE: 04 - Robin.flac
  Size: 3239719 Hash: B303D18D171F95D341F7C33ACF123386 Accuracy: -m8
  Conclusion: CDDA 100%
  Signature: 0DB01FB4C50AD3355362FFD5370ED252C80E401E
FILE: 03 - Sleepover.flac
  Size: 26834627 Hash: 2A6AE040BC55F1C0900C62DF0A8B0BEE Accuracy: -m8
  Conclusion: CDDA 100%
  Signature: D63F25D38F68A1B3E43B7ACAC323D775346B8AB6
FILE: 02 - Questionnaire.flac
  Size: 16712284 Hash: 50F685863B305C24D0A9E28232DE1E42 Accuracy: -m8
  Conclusion: CDDA 100%
  Signature: 4EA8455AE9B0EC75A3B236D5855114A76AE5E926
FILE: 01 - My I'm Sorry Song To You.flac
  Size: 11842194 Hash: B87020C1C783BCC1FB6910F1DF152E4A Accuracy: -m8
  Conclusion: CDDA 100%
  Signature: 4A8343FCF2A8BCF1080054405179D392A66864EE
Доп. информация
Balladeer (стилизованный под баллад) голландская группа, из Амстердама, была образована певцом Marinus de Goederen. В 2002 году группа выиграла 3FM BuZz Award и еще одну награду в следующем году на финале ежегодного музыкального конкурса голландской De Grote Prijs van Nederland.
Правила, инструкции, FAQ!!!
Торрент  Добавлен [26 мар 2019, 18:54] Скачать торрент Магнет ссылка
Скачать торрент
[ Размер 18.77 КБ / Просмотров 0 ]

Статус
Проверен 
 
Размер  220.13 МБ
Приватный: Нет (DHT включён)
.torrent скачан  0
 


     Отправить личное сообщение
   
Страница 1 из 1
Показать сообщения за:  Поле сортировки  
Начать новую тему Ответить на тему


Сейчас этот форум просматривают: нет зарегистрированных пользователей и гости: 0


Вы не можете начинать темы
Вы не можете отвечать на сообщения
Вы не можете редактировать свои сообщения
Вы не можете удалять свои сообщения
Вы не можете добавлять вложения

Перейти:  
cron