Начать новую тему Ответить на тему
Статистика раздачи
Размер: 261.8 МБ | Добавлен: 26 мар 2019, 20:40 | Скачали: 0
Сидеров: 0  [0 байт/сек]    Личеров: 0  [0 байт/сек]
Пред. тема | След. тема 

Автор
Сообщение

СообщениеДобавлено: 26 мар 2019, 20:40 

Ответить с цитатой 

Superbus - Sunset - 2012

Жанр: Pop-Rock, Female Vocal
Год издания: 2012
Издатель (лейбл): Polydor
Номер по каталогу: 370988-8
Страна: France
Аудиокодек: FLAC (*.flac)
Тип рипа: tracks+.cue
Битрейт аудио: lossless
Продолжительность: 00:35:38
Источник (релизер): fartman
Наличие сканов в содержимом раздачи: да
Треклист:
01. All Alone (3:39)
02. A La Chaine (3:21)
03. Smith 'n' Wesson (3:41)
04. Mini (2:16)
05. L'Annonce (2:51)
06. Whisper (3:46)
07. Calling You (2:20)
08. Mrs. Better (3:11)
09. Get Real (3:19)
10. Duo (3:36)
11. L'Ete N'Est Pas Loin (3:16)
Код:
Exact Audio Copy V1.0 beta 3 from 29. August 2011
EAC extraction logfile from 20. March 2013, 19:10
Superbus / Sunset
Used drive  : SlimtypeDVD A  DS8A4SH   Adapter: 0  ID: 1
Read mode               : Secure
Utilize accurate stream : Yes
Defeat audio cache      : Yes
Make use of C2 pointers : No
Read offset correction                      : 6
Overread into Lead-In and Lead-Out          : No
Fill up missing offset samples with silence : Yes
Delete leading and trailing silent blocks   : No
Null samples used in CRC calculations       : Yes
Used interface                              : Native Win32 interface for Win NT & 2000
Gap handling                                : Appended to previous track
Used output format              : User Defined Encoder
Selected bitrate                : 1024 kBit/s
Quality                         : High
Add ID3 tag                     : No
Command line compressor         : C:\Program Files (x86)\Exact Audio Copy\FLAC\FLAC.EXE
Additional command line options : -8 -V -T "ARTIST=%artist%" -T "TITLE=%title%" -T "ALBUM=%albumtitle%" -T "DATE=%year%" -T "TRACKNUMBER=%tracknr%" -T "GENRE=%genre%" -T "PERFORMER=%albuminterpret%" -T "COMPOSER=%composer%" %haslyrics%--tag-from-file=LYRICS="%lyricsfile%"%haslyrics% -T "ALBUMARTIST=%albumartist%" -T "DISCNUMBER=%cdnumber%" -T "TOTALDISCS=%totalcds%" -T "TOTALTRACKS=%numtracks%" -T "COMMENT=%comment%" %source% -o %dest%
TOC of the extracted CD
     Track |   Start  |  Length  | Start sector | End sector
    ---------------------------------------------------------
        1  |  0:00.00 |  3:39.31 |         0    |    16455
        2  |  3:39.31 |  3:50.35 |     16456    |    33740
        3  |  7:29.66 |  3:43.05 |     33741    |    50470
        4  | 11:12.71 |  2:17.44 |     50471    |    60789
        5  | 13:30.40 |  2:51.58 |     60790    |    73672
        6  | 16:22.23 |  3:47.45 |     73673    |    90742
        7  | 20:09.68 |  2:19.71 |     90743    |   101238
        8  | 22:29.64 |  3:12.27 |    101239    |   115665
        9  | 25:42.16 |  3:19.55 |    115666    |   130645
       10  | 29:01.71 |  3:36.31 |    130646    |   146876
       11  | 32:38.27 |  2:59.57 |    146877    |   160358
Track  1
     Filename C:\Users\KatZ\Desktop\Superbus-Sunset-CD-FLAC-2012-StarKy22\01 - All Alone.wav
     Pre-gap length  0:00:02.00
     Peak level 97.7 %
     Extraction speed 1.1 X
     Track quality 100.0 %
     Test CRC 3EAECDCC
     Copy CRC 3EAECDCC
     Accurately ripped (confidence 1)  [76B831E3]  (AR v2)
     Copy OK
Track  2
     Filename C:\Users\KatZ\Desktop\Superbus-Sunset-CD-FLAC-2012-StarKy22\02 - A La Chaîne.wav
     Pre-gap length  0:00:01.12
     Peak level 98.8 %
     Extraction speed 1.2 X
     Track quality 100.0 %
     Test CRC 3ACC5842
     Copy CRC 3ACC5842
     Accurately ripped (confidence 1)  [E7530A94]  (AR v2)
     Copy OK
Track  3
     Filename C:\Users\KatZ\Desktop\Superbus-Sunset-CD-FLAC-2012-StarKy22\03 - Smith N Wesson.wav
     Pre-gap length  0:00:01.56
     Peak level 97.7 %
     Extraction speed 1.1 X
     Track quality 99.9 %
     Test CRC 4F54FADD
     Copy CRC 4F54FADD
     Accurately ripped (confidence 1)  [7225A4C6]  (AR v2)
     Copy OK
Track  4
     Filename C:\Users\KatZ\Desktop\Superbus-Sunset-CD-FLAC-2012-StarKy22\04 - Mini.wav
     Pre-gap length  0:00:01.32
     Peak level 97.7 %
     Extraction speed 1.2 X
     Track quality 100.0 %
     Test CRC 89C23D68
     Copy CRC 89C23D68
     Accurately ripped (confidence 1)  [CB50D2BD]  (AR v2)
     Copy OK
Track  5
     Filename C:\Users\KatZ\Desktop\Superbus-Sunset-CD-FLAC-2012-StarKy22\05 - L'Annonce.wav
     Pre-gap length  0:00:01.09
     Peak level 97.7 %
     Extraction speed 1.4 X
     Track quality 100.0 %
     Test CRC 6E016E3E
     Copy CRC 6E016E3E
     Accurately ripped (confidence 1)  [D9BE775D]  (AR v2)
     Copy OK
Track  6
     Filename C:\Users\KatZ\Desktop\Superbus-Sunset-CD-FLAC-2012-StarKy22\06 - Whisper (Ft. Richie Sambora).wav
     Peak level 97.7 %
     Extraction speed 1.5 X
     Track quality 100.0 %
     Test CRC C74ABA96
     Copy CRC C74ABA96
     Accurately ripped (confidence 1)  [BED77DF5]  (AR v2)
     Copy OK
Track  7
     Filename C:\Users\KatZ\Desktop\Superbus-Sunset-CD-FLAC-2012-StarKy22\07 - Calling You.wav
     Pre-gap length  0:00:01.08
     Peak level 97.7 %
     Extraction speed 1.4 X
     Track quality 100.0 %
     Test CRC CBE1A53F
     Copy CRC CBE1A53F
     Accurately ripped (confidence 1)  [8031F436]  (AR v2)
     Copy OK
Track  8
     Filename C:\Users\KatZ\Desktop\Superbus-Sunset-CD-FLAC-2012-StarKy22\08 - Mrs Better.wav
     Peak level 97.7 %
     Extraction speed 1.6 X
     Track quality 100.0 %
     Test CRC 6B28B524
     Copy CRC 6B28B524
     Accurately ripped (confidence 1)  [23822288]  (AR v2)
     Copy OK
Track  9
     Filename C:\Users\KatZ\Desktop\Superbus-Sunset-CD-FLAC-2012-StarKy22\09 - Get Real.wav
     Pre-gap length  0:00:01.29
     Peak level 97.7 %
     Extraction speed 1.6 X
     Track quality 100.0 %
     Test CRC 4D65D8E3
     Copy CRC 4D65D8E3
     Accurately ripped (confidence 1)  [2D4065F0]  (AR v2)
     Copy OK
Track 10
     Filename C:\Users\KatZ\Desktop\Superbus-Sunset-CD-FLAC-2012-StarKy22\10 - Duo (Ft. Marcos Kamaras).wav
     Peak level 97.7 %
     Extraction speed 1.7 X
     Track quality 100.0 %
     Test CRC 72169051
     Copy CRC 72169051
     Accurately ripped (confidence 1)  [CC94865E]  (AR v2)
     Copy OK
Track 11
     Filename C:\Users\KatZ\Desktop\Superbus-Sunset-CD-FLAC-2012-StarKy22\11 - L'Eté n'Est Pas Loin.wav
     Peak level 97.7 %
     Extraction speed 1.7 X
     Track quality 100.0 %
     Test CRC A60A7BD5
     Copy CRC A60A7BD5
     Accurately ripped (confidence 1)  [F49E665F]  (AR v2)
     Copy OK
All tracks accurately ripped
No errors occurred
End of status report
==== Log checksum DCF68980D82835F9776A3915AA78A21C0ACD9E517BB0D18763F8E5DA041796DE ====
Код:
REM GENRE Pop Rock
REM DATE 2012
REM DISCID 7E085A0B
REM COMMENT "ExactAudioCopy v1.0b3"
CATALOG 0602537098880
PERFORMER "Superbus"
TITLE "Sunset"
FILE "01 - All Alone.flac" WAVE
  TRACK 01 AUDIO
    TITLE "All Alone"
    PERFORMER "Superbus"
    ISRC FRUM71201525
    INDEX 01 00:00:00
FILE "02 - A La Chaine.flac" WAVE
  TRACK 02 AUDIO
    TITLE "A La Chaine"
    PERFORMER "Superbus"
    ISRC FRUM71201792
    PREGAP 00:01:09
    INDEX 01 00:00:00
FILE "03 - Smith N Wesson.flac" WAVE
  TRACK 03 AUDIO
    TITLE "Smith N Wesson"
    PERFORMER "Superbus"
    ISRC FRUM71201793
    PREGAP 00:01:42
    INDEX 01 00:00:00
FILE "04 - Mini.flac" WAVE
  TRACK 04 AUDIO
    TITLE "Mini"
    PERFORMER "Superbus"
    ISRC FRUM71201794
    PREGAP 00:01:24
    INDEX 01 00:00:00
FILE "05 - L'Annonce.flac" WAVE
  TRACK 05 AUDIO
    TITLE "L'Annonce"
    PERFORMER "Superbus"
    ISRC FRUM71201795
    PREGAP 00:01:07
    INDEX 01 00:00:00
FILE "06 - Whisper (Ft. Richie Sambora).flac" WAVE
  TRACK 06 AUDIO
    TITLE "Whisper (Ft. Richie Sambora)"
    PERFORMER "Superbus"
    ISRC FRUM71201796
    INDEX 01 00:00:00
FILE "07 - Calling You.flac" WAVE
  TRACK 07 AUDIO
    TITLE "Calling You"
    PERFORMER "Superbus"
    ISRC FRUM71201797
    PREGAP 00:01:06
    INDEX 01 00:00:00
FILE "08 - Mrs Better.flac" WAVE
  TRACK 08 AUDIO
    TITLE "Mrs Better"
    PERFORMER "Superbus"
    ISRC FRUM71201798
    INDEX 01 00:00:00
FILE "09 - Get Real.flac" WAVE
  TRACK 09 AUDIO
    TITLE "Get Real"
    PERFORMER "Superbus"
    ISRC FRUM71201799
    PREGAP 00:01:22
    INDEX 01 00:00:00
FILE "10 - Duo (Ft. Marcos Kamaras).flac" WAVE
  TRACK 10 AUDIO
    TITLE "Duo (Ft. Marcos Kamaras)"
    PERFORMER "Superbus"
    ISRC FRUM71201800
    INDEX 01 00:00:00
FILE "11 - L'Ete n'Est Pas Loin.flac" WAVE
  TRACK 11 AUDIO
    TITLE "L'Ete n'Est Pas Loin"
    PERFORMER "Superbus"
    ISRC FRUM71201801
    INDEX 01 00:00:00
Правила, инструкции, FAQ!!!
Торрент  Добавлен [26 мар 2019, 20:40] Скачать торрент Магнет ссылка
Скачать торрент
[ Размер 11.95 КБ / Просмотров 5 ]

Статус
Проверен 
 
Размер  261.8 МБ
Приватный: Нет (DHT включён)
.torrent скачан  0
 


     Отправить личное сообщение
   
Страница 1 из 1
Показать сообщения за:  Поле сортировки  
Начать новую тему Ответить на тему


Сейчас этот форум просматривают: нет зарегистрированных пользователей и гости: 0


Вы не можете начинать темы
Вы не можете отвечать на сообщения
Вы не можете редактировать свои сообщения
Вы не можете удалять свои сообщения
Вы не можете добавлять вложения

Перейти:  
cron