Начать новую тему Ответить на тему
Статистика раздачи
Размер: 319.77 МБ | Добавлен: 26 мар 2019, 20:28 | Скачали: 0
Сидеров: 0  [0 байт/сек]    Личеров: 0  [0 байт/сек]
Пред. тема | След. тема 

Автор
Сообщение

СообщениеДобавлено: 26 мар 2019, 20:28 

Ответить с цитатой 

Фанданго / Както преди
Жанр: Pop Rock, BG
Носитель: CD
Страна-производитель диска (релиза): BG
Год издания: 2014
Издатель (лейбл): Art Eternal
Номер по каталогу: 56518
Страна исполнителя (группы): BG
Аудиокодек: FLAC (*.flac)
Тип рипа: image+.cue
Битрейт аудио: lossless
Продолжительность: 0:41:48
Источник (релизер): Я
Наличие сканов в содержимом раздачи: да
Треклист:
01. Както преди
02. Life Is A Beauty
03. Бели коне
04. Щом си до мен
05. Вярвам в мечтите
06. Пътят
07. Не мога без теб
08. Фанданго
09. Миг от приказка
10. Лятото
Код:
Exact Audio Copy V1.0 beta 3 from 29. August 2011
EAC extraction logfile from 2. February 2015, 14:50
Фанданго / Както Преди
Used drive  : HL-DT-STDVD-RAM GH15L   Adapter: 0  ID: 1
Read mode               : Secure
Utilize accurate stream : Yes
Defeat audio cache      : Yes
Make use of C2 pointers : No
Read offset correction                      : 667
Overread into Lead-In and Lead-Out          : No
Fill up missing offset samples with silence : Yes
Delete leading and trailing silent blocks   : No
Null samples used in CRC calculations       : Yes
Used interface                              : Native Win32 interface for Win NT & 2000
Used output format              : User Defined Encoder
Selected bitrate                : 768 kBit/s
Quality                         : High
Add ID3 tag                     : No
Command line compressor         : D:\Programs\EAC\Flac\flac.exe
Additional command line options : -V -8 -T "Date=%year%" -T "Genre=%genre%" %source%
TOC of the extracted CD
     Track |   Start  |  Length  | Start sector | End sector
    ---------------------------------------------------------
        1  |  0:00.00 |  4:24.33 |         0    |    19832
        2  |  4:24.33 |  3:54.36 |     19833    |    37418
        3  |  8:18.69 |  3:54.72 |     37419    |    55040
        4  | 12:13.66 |  3:40.46 |     55041    |    71586
        5  | 15:54.37 |  3:41.45 |     71587    |    88206
        6  | 19:36.07 |  4:33.59 |     88207    |   108740
        7  | 24:09.66 |  4:30.74 |    108741    |   129064
        8  | 28:40.65 |  3:25.26 |    129065    |   144465
        9  | 32:06.16 |  5:10.73 |    144466    |   167788
       10  | 37:17.14 |  4:31.53 |    167789    |   188166
Range status and errors
Selected range
     Filename F:\Lossless\Фанданго 2014 - Както преди\Фанданго - Както Преди.wav
     Peak level 99.4 %
     Extraction speed 5.3 X
     Range quality 100.0 %
     Test CRC 94C3A04D
     Copy CRC 94C3A04D
     Copy OK
No errors occurred
AccurateRip summary
Track  1  not present in database
Track  2  not present in database
Track  3  not present in database
Track  4  not present in database
Track  5  not present in database
Track  6  not present in database
Track  7  not present in database
Track  8  not present in database
Track  9  not present in database
Track 10  not present in database
None of the tracks are present in the AccurateRip database
End of status report
==== Log checksum 3DC93C38BA2394BF81D94D1223B6A0C53ABF1503C240E1D960B495F99D70A591 ====
Код:
REM GENRE "Pop Rock"
REM DATE 2014
REM DISCID 8409CC0A
REM COMMENT "ExactAudioCopy v1.0b3"
PERFORMER "Фанданго"
TITLE "Както Преди"
FILE "Фанданго - Както Преди.flac" WAVE
  TRACK 01 AUDIO
    TITLE "Както преди"
    PERFORMER "Фанданго"
    FLAGS DCP
    INDEX 01 00:00:00
  TRACK 02 AUDIO
    TITLE "Life Is A Beauty"
    PERFORMER "Фанданго"
    FLAGS DCP
    INDEX 01 04:24:33
  TRACK 03 AUDIO
    TITLE "Бели коне"
    PERFORMER "Фанданго"
    FLAGS DCP
    INDEX 01 08:18:69
  TRACK 04 AUDIO
    TITLE "Щом си до мен"
    PERFORMER "Фанданго"
    FLAGS DCP
    INDEX 01 12:13:66
  TRACK 05 AUDIO
    TITLE "Вярвам в мечтите"
    PERFORMER "Фанданго"
    FLAGS DCP
    INDEX 01 15:54:37
  TRACK 06 AUDIO
    TITLE "Пътят"
    PERFORMER "Фанданго"
    FLAGS DCP
    INDEX 01 19:36:07
  TRACK 07 AUDIO
    TITLE "Не мога без теб"
    PERFORMER "Фанданго"
    FLAGS DCP
    INDEX 01 24:09:66
  TRACK 08 AUDIO
    TITLE "Фанданго"
    PERFORMER "Фанданго"
    FLAGS DCP
    INDEX 01 28:40:65
  TRACK 09 AUDIO
    TITLE "Миг от приказка"
    PERFORMER "Фанданго"
    FLAGS DCP
    INDEX 01 32:06:16
  TRACK 10 AUDIO
    TITLE "Лятото"
    PERFORMER "Фанданго"
    FLAGS DCP
    INDEX 01 37:17:14
Доп. информация: Wikipedia http://www.youtube.com/watch?v=wx3hbwxBIZo
Група "Фанданго" е българска рок банда, която е създадена през пролетта на 1998 г. в град Бургас. Христо Стефанов - вокал, бас китара; Георги Русев - бас китара; Светослав Михайлов - китара, вокал. По-късно се присъединяват Атанас Миларов - ударни и Росен Сеновски - китара. "Фанданго" свирят основно в стил поп-рок. Техният дебютен албум, озаглавен Фанданго, излиза 2000 г., с който и печелят първа награда за "Дебют на 2001". През 2002 г. излиза техният втори албум - "Земен ангел". Той съдържа 10 песни плюс ремикс на пилотния сингъл Ваканция. Един от безспорните хитове на групата е "Миг от приказка", който остава рекордно седем седмици на първо място в Българския топ 100.
След 10-годишно затишие през месец март 2014 г. група „Фанданго” издава новия си албум "Както преди". Групата е в почти напълно обновен състав - фронтмен и създател на групата е Христо Стефанов, а новите попълнения са китаристите Йордан Йорданов и Детелин Йосифов, а на барабаните е Христо Коев. Албумът е записан във варненското студио на групата - DANN Studio.
Христо Стефанов - Вокали, бас китара, перкусии
Йордан Йорданов - Китари, бек вокали
Детелин Йосифов- Китари и програминг. бек вокали
Христо Коев- Барабани
Правила, инструкции, FAQ!!!
Торрент  Добавлен [26 мар 2019, 20:28] Скачать торрент Магнет ссылка
Скачать торрент
[ Размер 13.67 КБ / Просмотров 1 ]

Статус
Проверен 
 
Размер  319.77 МБ
Приватный: Нет (DHT включён)
.torrent скачан  0
 


     Отправить личное сообщение
   
Страница 1 из 1
Показать сообщения за:  Поле сортировки  
Начать новую тему Ответить на тему


Сейчас этот форум просматривают: нет зарегистрированных пользователей и гости: 0


Вы не можете начинать темы
Вы не можете отвечать на сообщения
Вы не можете редактировать свои сообщения
Вы не можете удалять свои сообщения
Вы не можете добавлять вложения

Перейти:  
cron