Начать новую тему Ответить на тему
Статистика раздачи
Размер: 289.91 МБ | Добавлен: 26 мар 2019, 20:30 | Скачали: 0
Сидеров: 0  [0 байт/сек]    Личеров: 0  [0 байт/сек]
Пред. тема | След. тема 

Автор
Сообщение

СообщениеДобавлено: 26 мар 2019, 20:30 

Ответить с цитатой 

Erin McCarley - Love, Save the Empty

Жанр: Pop-Rock
Год издания диска: 2009
Издатель (лейбл): Universal Republic Records
Номер по каталогу: B0012223-02
Страна: USA
Аудио кодек: FLAC (*.flac)
Тип рипа: tracks+.cue
Битрейт аудио: lossless
Продолжительность: 00:42:20
Источник (релизер): what.cd (mlapaglia)
Наличие сканов в содержимом раздачи: нет
Треклист:
01. Pony (It's Ok) (3:26)
02. Blue Suitcase (3:29)
03. Sticky-Sweet (3:28)
04. Lovesick Mistake (4:15)
05. Love, Save the Empty (3:16)
06. It's Not That Easy (4:23)
07. Hello / Goodbye (3:59)
08. Pitter-Pat (4:20)
09. Sleepwalking (3:32)
10. Bobble Head (3:24)
11. Gotta Figure This Out (4:49)
Код:
Exact Audio Copy V0.99 prebeta 5 from 4. May 2009
EAC extraction logfile from 10. November 2010, 21:10
Erin McCarley / Love, Save the Empty
Used drive  : PLEXTOR DVDR   PX-880SA   Adapter: 0  ID: 1
Read mode               : Secure
Utilize accurate stream : Yes
Defeat audio cache      : Yes
Make use of C2 pointers : No
Read offset correction                      : 6
Overread into Lead-In and Lead-Out          : No
Fill up missing offset samples with silence : Yes
Delete leading and trailing silent blocks   : No
Null samples used in CRC calculations       : Yes
Used interface                              : Native Win32 interface for Win NT & 2000
Gap handling                                : Appended to previous track
Used output format              : User Defined Encoder
Selected bitrate                : 128 kBit/s
Quality                         : High
Add ID3 tag                     : No
Command line compressor         : C:\Program Files (x86)\Exact Audio Copy\Flac\flac.exe
Additional command line options : -V -8 -T "artist=%a" -T "title=%t" -T "album=%g" -T "date=%y" -T "tracknumber=%n" -T "genre=%m" %s
TOC of the extracted CD
     Track |   Start  |  Length  | Start sector | End sector
    ---------------------------------------------------------
        1  |  0:00.00 |  3:26.10 |         0    |    15459
        2  |  3:26.10 |  3:28.45 |     15460    |    31104
        3  |  6:54.55 |  3:28.17 |     31105    |    46721
        4  | 10:22.72 |  4:15.03 |     46722    |    65849
        5  | 14:38.00 |  3:16.17 |     65850    |    80566
        6  | 17:54.17 |  4:22.60 |     80567    |   100276
        7  | 22:17.02 |  3:58.68 |    100277    |   118194
        8  | 26:15.70 |  4:19.60 |    118195    |   137679
        9  | 30:35.55 |  3:32.32 |    137680    |   153611
       10  | 34:08.12 |  3:23.45 |    153612    |   168881
       11  | 37:31.57 |  4:48.38 |    168882    |   190519
Track  1
     Filename C:\Users\mlapaglia\Desktop\Erin McCarley - 2008 - Love, Save the Empty\01 - Pony (It's Ok).wav
     Pre-gap length  0:00:02.00
     Peak level 99.9 %
     Track quality 100.0 %
     Test CRC D50E03D5
     Copy CRC D50E03D5
     Accurately ripped (confidence 14)  [08E6892E]
     Copy OK
Track  2
     Filename C:\Users\mlapaglia\Desktop\Erin McCarley - 2008 - Love, Save the Empty\02 - Blue Suitcase.wav
     Peak level 99.9 %
     Track quality 100.0 %
     Test CRC 8DE5A081
     Copy CRC 8DE5A081
     Accurately ripped (confidence 14)  [9093EBA9]
     Copy OK
Track  3
     Filename C:\Users\mlapaglia\Desktop\Erin McCarley - 2008 - Love, Save the Empty\03 - Sticky-Sweet.wav
     Peak level 99.9 %
     Track quality 99.9 %
     Test CRC F84CBA3A
     Copy CRC F84CBA3A
     Accurately ripped (confidence 14)  [A7E5F76B]
     Copy OK
Track  4
     Filename C:\Users\mlapaglia\Desktop\Erin McCarley - 2008 - Love, Save the Empty\04 - Lovesick Mistake.wav
     Pre-gap length  0:00:00.73
     Peak level 99.9 %
     Track quality 99.9 %
     Test CRC BD322740
     Copy CRC BD322740
     Accurately ripped (confidence 14)  [D4B7AA36]
     Copy OK
Track  5
     Filename C:\Users\mlapaglia\Desktop\Erin McCarley - 2008 - Love, Save the Empty\05 - Love, Save the Empty.wav
     Peak level 99.9 %
     Track quality 99.9 %
     Test CRC 4999B993
     Copy CRC 4999B993
     Accurately ripped (confidence 14)  [70595739]
     Copy OK
Track  6
     Filename C:\Users\mlapaglia\Desktop\Erin McCarley - 2008 - Love, Save the Empty\06 - It's Not That Easy.wav
     Pre-gap length  0:00:00.22
     Peak level 99.9 %
     Track quality 100.0 %
     Test CRC 42F6019A
     Copy CRC 42F6019A
     Accurately ripped (confidence 14)  [DCEE9390]
     Copy OK
Track  7
     Filename C:\Users\mlapaglia\Desktop\Erin McCarley - 2008 - Love, Save the Empty\07 - Hello , Goodbye.wav
     Peak level 99.9 %
     Track quality 100.0 %
     Test CRC C6E7BD9C
     Copy CRC C6E7BD9C
     Accurately ripped (confidence 14)  [86B5D01B]
     Copy OK
Track  8
     Filename C:\Users\mlapaglia\Desktop\Erin McCarley - 2008 - Love, Save the Empty\08 - Pitter-Pat.wav
     Pre-gap length  0:00:00.24
     Peak level 99.9 %
     Track quality 100.0 %
     Test CRC B12A3E2F
     Copy CRC B12A3E2F
     Accurately ripped (confidence 14)  [5A2DBD2F]
     Copy OK
Track  9
     Filename C:\Users\mlapaglia\Desktop\Erin McCarley - 2008 - Love, Save the Empty\09 - Sleepwalking.wav
     Peak level 99.9 %
     Track quality 100.0 %
     Test CRC F05424F3
     Copy CRC F05424F3
     Accurately ripped (confidence 14)  [CB9810E0]
     Copy OK
Track 10
     Filename C:\Users\mlapaglia\Desktop\Erin McCarley - 2008 - Love, Save the Empty\10 - Bobble Head.wav
     Peak level 99.9 %
     Track quality 100.0 %
     Test CRC D8AA8D23
     Copy CRC D8AA8D23
     Accurately ripped (confidence 14)  [57D2A677]
     Copy OK
Track 11
     Filename C:\Users\mlapaglia\Desktop\Erin McCarley - 2008 - Love, Save the Empty\11 - Gotta Figure This Out.wav
     Pre-gap length  0:00:00.86
     Peak level 99.9 %
     Track quality 100.0 %
     Test CRC 23D3C053
     Copy CRC 23D3C053
     Accurately ripped (confidence 14)  [EF5EE866]
     Copy OK
All tracks accurately ripped
No errors occurred
End of status report
Код:
REM GENRE Folk
REM DATE 2008
REM DISCID 8B09EC0B
REM COMMENT "ExactAudioCopy v0.99pb5"
CATALOG 0602517876644
PERFORMER "Erin McCarley"
TITLE "Love, Save the Empty"
FILE "Erin McCarley - 2008 - Love, Save the Empty\01 - Pony (It's Ok).wav" WAVE
  TRACK 01 AUDIO
    TITLE "Pony (It's Ok)"
    PERFORMER "Erin McCarley"
    ISRC USVC:0821241
    INDEX 01 00:00:00
FILE "Erin McCarley - 2008 - Love, Save the Empty\02 - Blue Suitcase.wav" WAVE
  TRACK 02 AUDIO
    TITLE "Blue Suitcase"
    PERFORMER "Erin McCarley"
    ISRC USVC:0836191
    INDEX 01 00:00:00
FILE "Erin McCarley - 2008 - Love, Save the Empty\03 - Sticky-Sweet.wav" WAVE
  TRACK 03 AUDIO
    TITLE "Sticky-Sweet"
    PERFORMER "Erin McCarley"
    ISRC USVC:0836192
    INDEX 01 00:00:00
  TRACK 04 AUDIO
    TITLE "Lovesick Mistake"
    PERFORMER "Erin McCarley"
    ISRC USVC:0836194
    INDEX 00 03:27:37
FILE "Erin McCarley - 2008 - Love, Save the Empty\04 - Lovesick Mistake.wav" WAVE
    INDEX 01 00:00:00
FILE "Erin McCarley - 2008 - Love, Save the Empty\05 - Love, Save the Empty.wav" WAVE
  TRACK 05 AUDIO
    TITLE "Love, Save the Empty"
    PERFORMER "Erin McCarley"
    ISRC USVC:0836193
    INDEX 01 00:00:00
  TRACK 06 AUDIO
    TITLE "It's Not That Easy"
    PERFORMER "Erin McCarley"
    ISRC USVC:0836195
    INDEX 00 03:16:00
FILE "Erin McCarley - 2008 - Love, Save the Empty\06 - It's Not That Easy.wav" WAVE
    INDEX 01 00:00:00
FILE "Erin McCarley - 2008 - Love, Save the Empty\07 - Hello , Goodbye.wav" WAVE
  TRACK 07 AUDIO
    TITLE "Hello / Goodbye"
    PERFORMER "Erin McCarley"
    ISRC USVC:0836196
    INDEX 01 00:00:00
  TRACK 08 AUDIO
    TITLE "Pitter-Pat"
    PERFORMER "Erin McCarley"
    ISRC USVC:0833188
    INDEX 00 03:58:50
FILE "Erin McCarley - 2008 - Love, Save the Empty\08 - Pitter-Pat.wav" WAVE
    INDEX 01 00:00:00
FILE "Erin McCarley - 2008 - Love, Save the Empty\09 - Sleepwalking.wav" WAVE
  TRACK 09 AUDIO
    TITLE "Sleepwalking"
    PERFORMER "Erin McCarley"
    ISRC USVC:0836197
    INDEX 01 00:00:00
FILE "Erin McCarley - 2008 - Love, Save the Empty\10 - Bobble Head.wav" WAVE
  TRACK 10 AUDIO
    TITLE "Bobble Head"
    PERFORMER "Erin McCarley"
    ISRC USVC:0836198
    INDEX 01 00:00:00
  TRACK 11 AUDIO
    TITLE "Gotta Figure This Out"
    PERFORMER "Erin McCarley"
    ISRC USVC:0836199
    INDEX 00 03:22:55
FILE "Erin McCarley - 2008 - Love, Save the Empty\11 - Gotta Figure This Out.wav" WAVE
    INDEX 01 00:00:00
Код:
AUDIOCHECKER v2.0 beta (build 457) - by Dester - opdester@freemail.hu
~~~~~~~~~~~~~~~~~~~~~~~~~~~~~~~~~~
Started at: понедельник, 18. 04. 2011. - 20:49.19
11 files found
01 -===- G:\Music\Erin McCarley - 2008 - Love, Save the Empty\01 - Pony (It's Ok).flac
  Extracted successfully
  Conclusion: this track is CDDA with probability 100%
  Tempfile successfully deleted.
02 -===- G:\Music\Erin McCarley - 2008 - Love, Save the Empty\02 - Blue Suitcase.flac
  Extracted successfully
  Conclusion: this track is CDDA with probability 100%
  Tempfile successfully deleted.
03 -===- G:\Music\Erin McCarley - 2008 - Love, Save the Empty\03 - Sticky-Sweet.flac
  Extracted successfully
  Conclusion: this track is CDDA with probability 100%
  Tempfile successfully deleted.
04 -===- G:\Music\Erin McCarley - 2008 - Love, Save the Empty\04 - Lovesick Mistake.flac
  Extracted successfully
  Conclusion: this track is CDDA with probability 100%
  Tempfile successfully deleted.
05 -===- G:\Music\Erin McCarley - 2008 - Love, Save the Empty\05 - Love, Save the Empty.flac
  Extracted successfully
  Conclusion: this track is CDDA with probability 100%
  Tempfile successfully deleted.
06 -===- G:\Music\Erin McCarley - 2008 - Love, Save the Empty\06 - It's Not That Easy.flac
  Extracted successfully
  Conclusion: this track is CDDA with probability 99%
  Tempfile successfully deleted.
07 -===- G:\Music\Erin McCarley - 2008 - Love, Save the Empty\07 - Hello , Goodbye.flac
  Extracted successfully
  Conclusion: this track is CDDA with probability 100%
  Tempfile successfully deleted.
08 -===- G:\Music\Erin McCarley - 2008 - Love, Save the Empty\08 - Pitter-Pat.flac
  Extracted successfully
  Conclusion: this track is CDDA with probability 100%
  Tempfile successfully deleted.
09 -===- G:\Music\Erin McCarley - 2008 - Love, Save the Empty\09 - Sleepwalking.flac
  Extracted successfully
  Conclusion: this track is CDDA with probability 100%
  Tempfile successfully deleted.
10 -===- G:\Music\Erin McCarley - 2008 - Love, Save the Empty\10 - Bobble Head.flac
  Extracted successfully
  Conclusion: this track is CDDA with probability 100%
  Tempfile successfully deleted.
11 -===- G:\Music\Erin McCarley - 2008 - Love, Save the Empty\11 - Gotta Figure This Out.flac
  Extracted successfully
  Conclusion: this track is CDDA with probability 99%
  Tempfile successfully deleted.
Finished at: понедельник, 18. 04. 2011. - 21:04.40 (operation time: 0:15.20)
Правила, инструкции, FAQ!!!
Торрент  Добавлен [26 мар 2019, 20:30] Скачать торрент Магнет ссылка
Скачать торрент
[ Размер 24.55 КБ / Просмотров 2 ]

Статус
Проверен 
 
Размер  289.91 МБ
Приватный: Нет (DHT включён)
.torrent скачан  0
 


     Отправить личное сообщение
   
Страница 1 из 1
Показать сообщения за:  Поле сортировки  
Начать новую тему Ответить на тему


Сейчас этот форум просматривают: нет зарегистрированных пользователей и гости: 0


Вы не можете начинать темы
Вы не можете отвечать на сообщения
Вы не можете редактировать свои сообщения
Вы не можете удалять свои сообщения
Вы не можете добавлять вложения

Перейти:  
cron