Начать новую тему Ответить на тему
Статистика раздачи
Размер: 309.72 МБ | Добавлен: 26 мар 2019, 18:39 | Скачали: 0
Сидеров: 1  [0 байт/сек]    Личеров: 0  [0 байт/сек]
Пред. тема | След. тема 

Автор
Сообщение

СообщениеДобавлено: 26 мар 2019, 18:39 

Ответить с цитатой 

Eric Carmen - Tonight You're Mine ©1980 (Japan)
Жанр: Pop/Rock
Год выпуска диска: 1997 (1980)
Производитель диска: Japan BMG BVCM-7322
Аудио кодек: FLAC
Тип рипа: image+.cue
Битрейт аудио: lossless
Продолжительность: 33:51
Наличие сканов в содержимом раздачи: да
Источник (релизер):
Tonight You're Mine:
01. It Hurts Too Much [0:04:18.03]
02. Lost In The Shuffle [0:04:06.70]
03. All For Love [0:04:01.45]
04. Tonight You're Mine [0:04:02.12]
05. Sleep With Me [0:04:02.30]
06. Inside Story [0:03:41.45]
07. Foolin' Myself [0:05:34.55]
08. You Need Some Lovin' [0:04:01.53]
Код:
Exact Audio Copy V0.99 prebeta 5 from 4. May 2009
EAC extraction logfile from 19. March 2010, 21:40
Eric Carmen / Tonight You're Mine
Used drive  : ASUS    DRW-1608P   Adapter: 2  ID: 1
Read mode               : Secure
Utilize accurate stream : Yes
Defeat audio cache      : Yes
Make use of C2 pointers : No
Read offset correction                      : 48
Overread into Lead-In and Lead-Out          : No
Fill up missing offset samples with silence : Yes
Delete leading and trailing silent blocks   : No
Null samples used in CRC calculations       : Yes
Used interface                              : Installed external ASPI interface
Used output format              : User Defined Encoder
Selected bitrate                : 1024 kBit/s
Quality                         : High
Add ID3 tag                     : No
Command line compressor         : C:\Program Files (x86)\Exact Audio Copy\Flac\flac.exe
Additional command line options : -5 -V -T "ARTIST=%a" -T "TITLE=%t" -T "ALBUM=%g" -T "DATE=%y" -T "TRACKNUMBER=%n" -T "GENRE=%m" -T "COMMENT=EAC FLAC -5" %s
TOC of the extracted CD
     Track |   Start  |  Length  | Start sector | End sector
    ---------------------------------------------------------
        1  |  0:00.37 |  4:18.03 |        37    |    19389
        2  |  4:18.40 |  4:06.70 |     19390    |    37909
        3  |  8:25.35 |  4:01.45 |     37910    |    56029
        4  | 12:27.05 |  4:02.12 |     56030    |    74191
        5  | 16:29.17 |  4:02.30 |     74192    |    92371
        6  | 20:31.47 |  3:41.45 |     92372    |   108991
        7  | 24:13.17 |  5:34.55 |    108992    |   134096
        8  | 29:47.72 |  4:01.53 |    134097    |   152224
Range status and errors
Selected range
     Filename F:\Eric Carmen - Tonight You're Mine - 1980 (Japan)\Eric Carmen - Tonight You're Mine.wav
     Peak level 97.9 %
     Range quality 100.0 %
     Test CRC D65B715E
     Copy CRC D65B715E
     Copy OK
No errors occurred
AccurateRip summary
Track  1  not present in database
Track  2  not present in database
Track  3  not present in database
Track  4  not present in database
Track  5  not present in database
Track  6  not present in database
Track  7  not present in database
Track  8  not present in database
None of the tracks are present in the AccurateRip database
End of status report
Правила, инструкции, FAQ!!!
Торрент  Добавлен [26 мар 2019, 18:39] Скачать торрент Магнет ссылка
Скачать торрент
[ Размер 13.22 КБ / Просмотров 1 ]

Статус
Проверен 
 
Размер  309.72 МБ
Приватный: Нет (DHT включён)
.torrent скачан  0
 


     Отправить личное сообщение
   
Страница 1 из 1
Показать сообщения за:  Поле сортировки  
Начать новую тему Ответить на тему


Сейчас этот форум просматривают: нет зарегистрированных пользователей и гости: 0


Вы не можете начинать темы
Вы не можете отвечать на сообщения
Вы не можете редактировать свои сообщения
Вы не можете удалять свои сообщения
Вы не можете добавлять вложения

Перейти:  
cron