Начать новую тему Ответить на тему
Статистика раздачи
Размер: 343.4 МБ | Добавлен: 26 мар 2019, 19:26 | Скачали: 0
Сидеров: 0  [0 байт/сек]    Личеров: 0  [0 байт/сек]
Пред. тема | След. тема 

Автор
Сообщение

СообщениеДобавлено: 26 мар 2019, 19:26 

Ответить с цитатой 

Enrico Ruggeri / Oggetti smarriti
Жанр: Pop-Rock
Год издания: 1994
Страна исполнителя (группы): Италия
Аудиокодек: FLAC (*.flac)
Тип рипа: tracks+.cue
Битрейт аудио: lossless
Продолжительность: 00: 47:58
Источник (релизер): internet
Наличие сканов в содержимом раздачи: да
Треклист:
1. Piccole persone [03.53]
2. Non piango piu [04.51]
3. Lunghe strade dipinte [03.59]
4. Speranze [03.55]
5. L' orizzonte (di una donna sola) [04.39]
6. Non e una canzone d'amore [04.17]
7. Senza terra [04.41]
8. La vita davanti [04.56]
9. Cuori solitari [05.00]
10. Paranormale [03.47]
11. Oggetti smarriti [03.54]
Код:
Exact Audio Copy V1.0 beta 3 from 29. August 2011
EAC extraction logfile from 26. June 2014, 16:41
Enrico Ruggeri / Oggetti smarriti
Used drive  : HL-DT-STDVDRAM GSA-T40N   Adapter: 0  ID: 0
Read mode               : Secure
Utilize accurate stream : Yes
Defeat audio cache      : Yes
Make use of C2 pointers : No
Read offset correction                      : 667
Overread into Lead-In and Lead-Out          : No
Fill up missing offset samples with silence : Yes
Delete leading and trailing silent blocks   : No
Null samples used in CRC calculations       : Yes
Used interface                              : Native Win32 interface for Win NT & 2000
Gap handling                                : Appended to previous track
Used output format              : User Defined Encoder
Selected bitrate                : 896 kBit/s
Quality                         : High
Add ID3 tag                     : No
Command line compressor         : C:\Program Files\Exact Audio Copy\FLAC\FLAC.EXE
Additional command line options : -8 -V -T "ARTIST=%artist%" -T "TITLE=%title%" -T "ALBUM=%albumtitle%" -T "DATE=%year%" -T "TRACKNUMBER=%tracknr%" -T "GENRE=%genre%" -T "COMMENT=%comment%" -T "BAND=%albuminterpret%" -T "ALBUMARTIST=%albuminterpret%" -T "COMPOSER=%composer%" %haslyrics%--tag-from-file=LYRICS="%lyricsfile%"%haslyrics% -T "DISCNUMBER=%cdnumber%" -T "TOTALDISCS=%totalcds%" -T "TOTALTRACKS=%numtracks%" %hascover%--picture="%coverfile%"%hascover% %source% -o %dest%
TOC of the extracted CD
     Track |   Start  |  Length  | Start sector | End sector
    ---------------------------------------------------------
        1  |  0:00.00 |  3:53.57 |         0    |    17531
        2  |  3:53.57 |  4:51.28 |     17532    |    39384
        3  |  8:45.10 |  3:59.20 |     39385    |    57329
        4  | 12:44.30 |  3:55.10 |     57330    |    74964
        5  | 16:39.40 |  4:39.42 |     74965    |    95931
        6  | 21:19.07 |  4:17.68 |     95932    |   115274
        7  | 25:37.00 |  4:41.47 |    115275    |   136396
        8  | 30:18.47 |  4:56.48 |    136397    |   158644
        9  | 35:15.20 |  5:00.52 |    158645    |   181196
       10  | 40:15.72 |  3:47.13 |    181197    |   198234
       11  | 44:03.10 |  3:54.65 |    198235    |   215849
Track  1
     Filename H:\MY EAC[.FLAC]\Enrico Ruggeri - Oggetti Smarriti\(1) Piccole persone - Enrico Ruggeri.flac
     Pre-gap length  0:00:02.00
     Peak level 95.3 %
     Extraction speed 1.0 X
     Track quality 100.0 %
     Test CRC 70102E9B
     Copy CRC 70102E9B
     Accurately ripped (confidence 2)  [0B3C7B12]  (AR v2)
     Copy OK
Track  2
     Filename H:\MY EAC[.FLAC]\Enrico Ruggeri - Oggetti Smarriti\(2) Non piango più - Enrico Ruggeri.flac
     Pre-gap length  0:00:00.02
     Peak level 99.8 %
     Extraction speed 1.3 X
     Track quality 100.0 %
     Test CRC 39A4578F
     Copy CRC 39A4578F
     Accurately ripped (confidence 2)  [3536F714]  (AR v2)
     Copy OK
Track  3
     Filename H:\MY EAC[.FLAC]\Enrico Ruggeri - Oggetti Smarriti\(3) Lunghe strade dipinte - Enrico Ruggeri.flac
     Pre-gap length  0:00:00.04
     Peak level 99.8 %
     Extraction speed 1.3 X
     Track quality 100.0 %
     Test CRC B0F3BAF4
     Copy CRC B0F3BAF4
     Accurately ripped (confidence 2)  [337FABF1]  (AR v2)
     Copy OK
Track  4
     Filename H:\MY EAC[.FLAC]\Enrico Ruggeri - Oggetti Smarriti\(4) Speranze - Enrico Ruggeri.flac
     Pre-gap length  0:00:00.04
     Peak level 95.3 %
     Extraction speed 1.4 X
     Track quality 100.0 %
     Test CRC 7B311F39
     Copy CRC 7B311F39
     Accurately ripped (confidence 2)  [5E490DA5]  (AR v2)
     Copy OK
Track  5
     Filename H:\MY EAC[.FLAC]\Enrico Ruggeri - Oggetti Smarriti\(5) L' orizzonte (di una donna sola) - Enrico Ruggeri.flac
     Pre-gap length  0:00:00.93
     Peak level 99.8 %
     Extraction speed 1.5 X
     Track quality 100.0 %
     Test CRC FE9FB5F1
     Copy CRC FE9FB5F1
     Accurately ripped (confidence 2)  [DA0206EF]  (AR v2)
     Copy OK
Track  6
     Filename H:\MY EAC[.FLAC]\Enrico Ruggeri - Oggetti Smarriti\(6) Non è una canzone d'amore - Enrico Ruggeri.flac
     Pre-gap length  0:00:00.09
     Peak level 99.8 %
     Extraction speed 1.5 X
     Track quality 100.0 %
     Test CRC CADB512E
     Copy CRC CADB512E
     Accurately ripped (confidence 2)  [7ED6C4B8]  (AR v2)
     Copy OK
Track  7
     Filename H:\MY EAC[.FLAC]\Enrico Ruggeri - Oggetti Smarriti\(7) Senza terra - Enrico Ruggeri.flac
     Pre-gap length  0:00:00.04
     Peak level 91.1 %
     Extraction speed 1.1 X
     Track quality 99.9 %
     Test CRC 381153DE
     Copy CRC 381153DE
     Accurately ripped (confidence 2)  [BD8D0296]  (AR v2)
     Copy OK
Track  8
     Filename H:\MY EAC[.FLAC]\Enrico Ruggeri - Oggetti Smarriti\(8) La vita davanti - Enrico Ruggeri.flac
     Pre-gap length  0:00:00.02
     Peak level 99.8 %
     Extraction speed 0.8 X
     Track quality 99.8 %
     Test CRC A894007A
     Copy CRC A894007A
     Accurately ripped (confidence 2)  [DFB6E0D1]  (AR v2)
     Copy OK
Track  9
     Filename H:\MY EAC[.FLAC]\Enrico Ruggeri - Oggetti Smarriti\(9) Cuori solitari - Enrico Ruggeri.flac
     Pre-gap length  0:00:00.17
     Peak level 99.8 %
     Extraction speed 1.7 X
     Track quality 100.0 %
     Test CRC B36A84D6
     Copy CRC B36A84D6
     Accurately ripped (confidence 2)  [4B29EF79]  (AR v2)
     Copy OK
Track 10
     Filename H:\MY EAC[.FLAC]\Enrico Ruggeri - Oggetti Smarriti\(10) Paranormale - Enrico Ruggeri.flac
     Pre-gap length  0:00:00.02
     Peak level 99.8 %
     Extraction speed 1.9 X
     Track quality 100.0 %
     Test CRC 77FAE930
     Copy CRC 77FAE930
     Accurately ripped (confidence 2)  [E0B28AE8]  (AR v2)
     Copy OK
Track 11
     Filename H:\MY EAC[.FLAC]\Enrico Ruggeri - Oggetti Smarriti\(11) Oggetti smarriti - Enrico Ruggeri.flac
     Pre-gap length  0:00:00.33
     Peak level 99.8 %
     Extraction speed 0.9 X
     Track quality 99.8 %
     Test CRC 6B038CD6
     Copy CRC 6B038CD6
     Accurately ripped (confidence 2)  [0D26779A]  (AR v2)
     Copy OK
All tracks accurately ripped
No errors occurred
End of status report
==== Log checksum A26BA4896910D29C9442B3BF2FDB92271E1B6EDB464510DED2B923DA418795AD ====
Код:
REM GENRE Pop
REM DATE 1994
REM DISCID 820B3E0B
REM COMMENT "ExactAudioCopy v1.0b3"
PERFORMER "Enrico Ruggeri"
TITLE "Oggetti smarriti"
FILE "(1) Piccole persone - Enrico Ruggeri.wav" WAVE
  TRACK 01 AUDIO
    TITLE "Piccole persone"
    PERFORMER "Enrico Ruggeri"
    INDEX 01 00:00:00
  TRACK 02 AUDIO
    TITLE "Non piango piщ"
    PERFORMER "Enrico Ruggeri"
    INDEX 00 03:53:55
FILE "(2) Non piango piщ - Enrico Ruggeri.wav" WAVE
    INDEX 01 00:00:00
  TRACK 03 AUDIO
    TITLE "Lunghe strade dipinte"
    PERFORMER "Enrico Ruggeri"
    INDEX 00 04:51:25
FILE "(3) Lunghe strade dipinte - Enrico Ruggeri.wav" WAVE
    INDEX 01 00:00:00
  TRACK 04 AUDIO
    TITLE "Speranze"
    PERFORMER "Enrico Ruggeri"
    INDEX 00 03:59:17
FILE "(4) Speranze - Enrico Ruggeri.wav" WAVE
    INDEX 01 00:00:00
  TRACK 05 AUDIO
    TITLE "L' orizzonte (di una donna sola)"
    PERFORMER "Enrico Ruggeri"
    INDEX 00 03:54:15
FILE "(5) L' orizzonte (di una donna sola) - Enrico Ruggeri.wav" WAVE
    INDEX 01 00:00:00
  TRACK 06 AUDIO
    TITLE "Non и una canzone d'amore"
    PERFORMER "Enrico Ruggeri"
    INDEX 00 04:39:35
FILE "(6) Non и una canzone d'amore - Enrico Ruggeri.wav" WAVE
    INDEX 01 00:00:00
  TRACK 07 AUDIO
    TITLE "Senza terra"
    PERFORMER "Enrico Ruggeri"
    INDEX 00 04:17:65
FILE "(7) Senza terra - Enrico Ruggeri.wav" WAVE
    INDEX 01 00:00:00
  TRACK 08 AUDIO
    TITLE "La vita davanti"
    PERFORMER "Enrico Ruggeri"
    INDEX 00 04:41:45
FILE "(8) La vita davanti - Enrico Ruggeri.wav" WAVE
    INDEX 01 00:00:00
  TRACK 09 AUDIO
    TITLE "Cuori solitari"
    PERFORMER "Enrico Ruggeri"
    INDEX 00 04:56:35
FILE "(9) Cuori solitari - Enrico Ruggeri.wav" WAVE
    INDEX 01 00:00:00
  TRACK 10 AUDIO
    TITLE "Paranormale"
    PERFORMER "Enrico Ruggeri"
    INDEX 00 05:00:50
FILE "(10) Paranormale - Enrico Ruggeri.wav" WAVE
    INDEX 01 00:00:00
  TRACK 11 AUDIO
    TITLE "Oggetti smarriti"
    PERFORMER "Enrico Ruggeri"
    INDEX 00 03:46:63
FILE "(11) Oggetti smarriti - Enrico Ruggeri.wav" WAVE
    INDEX 01 00:00:00
Правила, инструкции, FAQ!!!
Торрент  Добавлен [26 мар 2019, 19:26] Скачать торрент Магнет ссылка
Скачать торрент
[ Размер 15.11 КБ / Просмотров 1 ]

Статус
Проверен 
 
Размер  343.4 МБ
Приватный: Нет (DHT включён)
.torrent скачан  0
 


     Отправить личное сообщение
   
Страница 1 из 1
Показать сообщения за:  Поле сортировки  
Начать новую тему Ответить на тему


Сейчас этот форум просматривают: нет зарегистрированных пользователей и гости: 0


Вы не можете начинать темы
Вы не можете отвечать на сообщения
Вы не можете редактировать свои сообщения
Вы не можете удалять свои сообщения
Вы не можете добавлять вложения

Перейти:  
cron