Начать новую тему Ответить на тему
Статистика раздачи
Размер: 338.46 МБ | Добавлен: 26 мар 2019, 18:49 | Скачали: 0
Сидеров: 0  [0 байт/сек]    Личеров: 0  [0 байт/сек]
Пред. тема | След. тема 

Автор
Сообщение

СообщениеДобавлено: 26 мар 2019, 18:49 

Ответить с цитатой 

Something Corporate / North [UK Edition]
Жанр: Pop-Rock, Emo, Alternative
Год издания: 2003
Аудиокодек: FLAC (*.flac)
Тип рипа: tracks+.cue
Битрейт аудио: lossless
Продолжительность: 47:47
Источник (релизер): web
Наличие сканов в содержимом раздачи: нет
Треклист:
01. As You Sleep
02. Space
03. Down
04. Only Ashes
05. Me and the Moon
06. The Runaway
07. Ruthless
08. She Paints Me Blue
09. Break Myself
10. I Won't Make You
11. 21 and Invincible
12. Miss America
13. Watch The Sky
14. Unravel
Код:
EAC extraction logfile from 20. July 2007, 12:52 for CD
Something Corporate / North
Used drive  : _NEC    DVD_RW ND-3530A   Adapter: 1  ID: 0
Read mode   : Secure with NO C2, accurate stream, disable cache
Read offset correction : 48
Overread into Lead-In and Lead-Out : No
Used output format : C:\Program Files\Exact Audio Copy\flac.exe   (User Defined Encoder)
                     192 kBit/s
                     Additional command line options : -V -8 -T "artist=%a" -T "title=%t" -T "album=%g" -T "date=%y" -T "tracknumber=%n" -T "genre=%m" %s
Other options      :
    Fill up missing offset samples with silence : Yes
    Delete leading and trailing silent blocks : No
    Installed external ASPI interface
Track  1
     Filename D:\Documents and Settings\James.049552820230.000\My Documents\My Music\flac files\Something Corporate - North (UK EDITION)\01 - Something Corporate - As You Sleep.wav
     Pre-gap length  0:00:02.00
     Peak level 95.5 %
     Track quality 99.9 %
     Test CRC E492C995
     Copy CRC E492C995
     Copy OK
Track  2
     Filename D:\Documents and Settings\James.049552820230.000\My Documents\My Music\flac files\Something Corporate - North (UK EDITION)\02 - Something Corporate - Space.wav
     Peak level 100.0 %
     Track quality 100.0 %
     Test CRC 5E84A0D3
     Copy CRC 5E84A0D3
     Copy OK
Track  3
     Filename D:\Documents and Settings\James.049552820230.000\My Documents\My Music\flac files\Something Corporate - North (UK EDITION)\03 - Something Corporate - Down.wav
     Peak level 100.0 %
     Track quality 100.0 %
     Test CRC F18C3857
     Copy CRC F18C3857
     Copy OK
Track  4
     Filename D:\Documents and Settings\James.049552820230.000\My Documents\My Music\flac files\Something Corporate - North (UK EDITION)\04 - Something Corporate - Only Ashes.wav
     Peak level 93.2 %
     Track quality 100.0 %
     Test CRC 0D9F6D63
     Copy CRC 0D9F6D63
     Copy OK
Track  5
     Filename D:\Documents and Settings\James.049552820230.000\My Documents\My Music\flac files\Something Corporate - North (UK EDITION)\05 - Something Corporate - Me And The Moon.wav
     Peak level 100.0 %
     Track quality 100.0 %
     Test CRC 8D940AFA
     Copy CRC 8D940AFA
     Copy OK
Track  6
     Filename D:\Documents and Settings\James.049552820230.000\My Documents\My Music\flac files\Something Corporate - North (UK EDITION)\06 - Something Corporate - The Runaway.wav
     Peak level 100.0 %
     Track quality 100.0 %
     Test CRC 3A147B35
     Copy CRC 3A147B35
     Copy OK
Track  7
     Filename D:\Documents and Settings\James.049552820230.000\My Documents\My Music\flac files\Something Corporate - North (UK EDITION)\07 - Something Corporate - Ruthless.wav
     Peak level 97.7 %
     Track quality 100.0 %
     Test CRC E0ABAC34
     Copy CRC E0ABAC34
     Copy OK
Track  8
     Filename D:\Documents and Settings\James.049552820230.000\My Documents\My Music\flac files\Something Corporate - North (UK EDITION)\08 - Something Corporate - She Paints Me Blue.wav
     Peak level 99.1 %
     Track quality 100.0 %
     Test CRC 162C2ECC
     Copy CRC 162C2ECC
     Copy OK
Track  9
     Filename D:\Documents and Settings\James.049552820230.000\My Documents\My Music\flac files\Something Corporate - North (UK EDITION)\09 - Something Corporate - Break Myself.wav
     Peak level 97.7 %
     Track quality 100.0 %
     Test CRC B710BDDF
     Copy CRC B710BDDF
     Copy OK
Track 10
     Filename D:\Documents and Settings\James.049552820230.000\My Documents\My Music\flac files\Something Corporate - North (UK EDITION)\10 - Something Corporate - I Won't Make You.wav
     Peak level 97.8 %
     Track quality 99.9 %
     Test CRC D35995E2
     Copy CRC D35995E2
     Copy OK
Track 11
     Filename D:\Documents and Settings\James.049552820230.000\My Documents\My Music\flac files\Something Corporate - North (UK EDITION)\11 - Something Corporate - 21 And Invincible.wav
     Pre-gap length  0:00:00.10
     Peak level 97.7 %
     Track quality 100.0 %
     Test CRC F62619D8
     Copy CRC F62619D8
     Copy OK
Track 12
     Filename D:\Documents and Settings\James.049552820230.000\My Documents\My Music\flac files\Something Corporate - North (UK EDITION)\12 - Something Corporate - Miss America.wav
     Pre-gap length  0:00:00.70
     Peak level 100.0 %
     Track quality 100.0 %
     Test CRC F67AF1ED
     Copy CRC F67AF1ED
     Copy OK
Track 13
     Filename D:\Documents and Settings\James.049552820230.000\My Documents\My Music\flac files\Something Corporate - North (UK EDITION)\13 - Something Corporate - Watch The Sky.wav
     Pre-gap length  0:00:00.32
     Peak level 98.8 %
     Track quality 100.0 %
     Test CRC F70DB026
     Copy CRC F70DB026
     Copy OK
Track 14
     Filename D:\Documents and Settings\James.049552820230.000\My Documents\My Music\flac files\Something Corporate - North (UK EDITION)\14 - Something Corporate - Unravel.wav
     Pre-gap length  0:00:01.26
     Peak level 98.8 %
     Track quality 99.9 %
     Test CRC E44D6370
     Copy CRC E44D6370
     Copy OK
No errors occured
End of status report
Код:
REM GENRE rock
REM DATE 2003
REM DISCID B10B330E
REM COMMENT "ExactAudioCopy v0.95b3"
PERFORMER "Something Corporate"
TITLE "North"
FILE "01 - Something Corporate - As You Sleep.wav" WAVE
  TRACK 01 AUDIO
    TITLE "As You Sleep"
    PERFORMER "Something Corporate"
    INDEX 01 00:00:00
FILE "02 - Something Corporate - Space.wav" WAVE
  TRACK 02 AUDIO
    TITLE "Space"
    PERFORMER "Something Corporate"
    INDEX 01 00:00:00
FILE "03 - Something Corporate - Down.wav" WAVE
  TRACK 03 AUDIO
    TITLE "Down"
    PERFORMER "Something Corporate"
    INDEX 01 00:00:00
FILE "04 - Something Corporate - Only Ashes.wav" WAVE
  TRACK 04 AUDIO
    TITLE "Only Ashes"
    PERFORMER "Something Corporate"
    INDEX 01 00:00:00
FILE "05 - Something Corporate - Me And The Moon.wav" WAVE
  TRACK 05 AUDIO
    TITLE "Me And The Moon"
    PERFORMER "Something Corporate"
    INDEX 01 00:00:00
FILE "06 - Something Corporate - The Runaway.wav" WAVE
  TRACK 06 AUDIO
    TITLE "The Runaway"
    PERFORMER "Something Corporate"
    INDEX 01 00:00:00
FILE "07 - Something Corporate - Ruthless.wav" WAVE
  TRACK 07 AUDIO
    TITLE "Ruthless"
    PERFORMER "Something Corporate"
    INDEX 01 00:00:00
FILE "08 - Something Corporate - She Paints Me Blue.wav" WAVE
  TRACK 08 AUDIO
    TITLE "She Paints Me Blue"
    PERFORMER "Something Corporate"
    INDEX 01 00:00:00
FILE "09 - Something Corporate - Break Myself.wav" WAVE
  TRACK 09 AUDIO
    TITLE "Break Myself"
    PERFORMER "Something Corporate"
    INDEX 01 00:00:00
FILE "10 - Something Corporate - I Won't Make You.wav" WAVE
  TRACK 10 AUDIO
    TITLE "I Won't Make You"
    PERFORMER "Something Corporate"
    INDEX 01 00:00:00
  TRACK 11 AUDIO
    TITLE "21 And Invincible"
    PERFORMER "Something Corporate"
    INDEX 00 03:49:50
FILE "11 - Something Corporate - 21 And Invincible.wav" WAVE
    INDEX 01 00:00:00
  TRACK 12 AUDIO
    TITLE "Miss America"
    PERFORMER "Something Corporate"
    INDEX 00 03:17:67
FILE "12 - Something Corporate - Miss America.wav" WAVE
    INDEX 01 00:00:00
  TRACK 13 AUDIO
    TITLE "Watch The Sky"
    PERFORMER "Something Corporate"
    INDEX 00 03:49:26
FILE "13 - Something Corporate - Watch The Sky.wav" WAVE
    INDEX 01 00:00:00
  TRACK 14 AUDIO
    TITLE "Unravel"
    PERFORMER "Something Corporate"
    INDEX 00 02:54:30
FILE "14 - Something Corporate - Unravel.wav" WAVE
    INDEX 01 00:00:00
Правила, инструкции, FAQ!!!
Торрент  Добавлен [26 мар 2019, 18:49] Скачать торрент Магнет ссылка
Скачать торрент
[ Размер 14.81 КБ / Просмотров 1 ]

Статус
Проверен 
 
Размер  338.46 МБ
Приватный: Нет (DHT включён)
.torrent скачан  0
 


     Отправить личное сообщение
   
Страница 1 из 1
Показать сообщения за:  Поле сортировки  
Начать новую тему Ответить на тему


Сейчас этот форум просматривают: нет зарегистрированных пользователей и гости: 0


Вы не можете начинать темы
Вы не можете отвечать на сообщения
Вы не можете редактировать свои сообщения
Вы не можете удалять свои сообщения
Вы не можете добавлять вложения

Перейти:  
cron