Начать новую тему Ответить на тему
Статистика раздачи
Размер: 223.73 МБ | Добавлен: 26 мар 2019, 19:27 | Скачали: 0
Сидеров: 0  [0 байт/сек]    Личеров: 0  [0 байт/сек]
Пред. тема | След. тема 

Автор
Сообщение

СообщениеДобавлено: 26 мар 2019, 19:27 

Ответить с цитатой 

Emm Gryner - Goddess

Жанр: Pop-Rock
Год выпуска : 2009
Лейбл: Dead Daisy Records
Аудио кодек: FLAC
Тип рипа: tracks+.cue
Битрейт аудио: lossless
Продолжительность: 00:32:15
Рип: satiatedmanatee - What CD


01. Let It Snow (2:51)
02. Goddess (4:10)
03. Young As The Night (3:21)
04. Empty Hole (3:20)
05. Die Evergreen (4:04)
06. Skating Rink (1:34)
07. Match (3:58)
08. Killing Spree (3:28)
09. Leftover Love (3:23)
10. Note 2 Self (2:08)

Код:
Exact Audio Copy V0.99 prebeta 5 from 4. May 2009
EAC extraction logfile from 21. December 2009, 11:14
Emm Gryner / Goddess
Used drive  : PIONEER DVDRW   DVR-K17B   Adapter: 1  ID: 0
Read mode               : Secure
Utilize accurate stream : Yes
Defeat audio cache      : Yes
Make use of C2 pointers : No
Read offset correction                      : 48
Overread into Lead-In and Lead-Out          : No
Fill up missing offset samples with silence : Yes
Delete leading and trailing silent blocks   : No
Null samples used in CRC calculations       : Yes
Used interface                              : Native Win32 interface for Win NT & 2000
Gap handling                                : Appended to previous track
Used output format              : User Defined Encoder
Selected bitrate                : 128 kBit/s
Quality                         : High
Add ID3 tag                     : No
Command line compressor         : C:\Program Files\Exact Audio Copy\Flac\flac.exe
Additional command line options : -V -8 -T "artist=%a" -T "title=%t" -T "album=%g" -T "date=%y" -T "tracknumber=%n" -T "genre=%m" %s
TOC of the extracted CD
     Track |   Start  |  Length  | Start sector | End sector
    ---------------------------------------------------------
        1  |  0:00.00 |  2:51.30 |         0    |    12854
        2  |  2:51.30 |  4:09.74 |     12855    |    31603
        3  |  7:01.29 |  3:21.25 |     31604    |    46703
        4  | 10:22.54 |  3:19.40 |     46704    |    61668
        5  | 13:42.19 |  4:03.48 |     61669    |    79941
        6  | 17:45.67 |  1:33.55 |     79942    |    86971
        7  | 19:19.47 |  3:57.39 |     86972    |   104785
        8  | 23:17.11 |  3:27.65 |    104786    |   120375
        9  | 26:45.01 |  3:22.58 |    120376    |   135583
       10  | 30:07.59 |  2:07.48 |    135584    |   145156
Track  1
     Filename 01 - Let It Snow.wav
     Pre-gap length  0:00:02.00
     Peak level 100.0 %
     Track quality 100.0 %
     Test CRC 39CEAB12
     Copy CRC 39CEAB12
     Accurately ripped (confidence 1)  [63EF778A]
     Copy OK
Track  2
     Filename 02 - Goddess.wav
     Peak level 100.0 %
     Track quality 100.0 %
     Test CRC 250793E2
     Copy CRC 250793E2
     Accurately ripped (confidence 1)  [EBFA9FDD]
     Copy OK
Track  3
     Filename 03 - Young As The Night.wav
     Peak level 100.0 %
     Track quality 100.0 %
     Test CRC 48BBFDDA
     Copy CRC 48BBFDDA
     Accurately ripped (confidence 1)  [7AB14D76]
     Copy OK
Track  4
     Filename 04 - Empty Hole.wav
     Peak level 100.0 %
     Track quality 100.0 %
     Test CRC 5DF15B3C
     Copy CRC 5DF15B3C
     Accurately ripped (confidence 1)  [AB0FFB6D]
     Copy OK
Track  5
     Filename 05 - Die Evergreen.wav
     Peak level 100.0 %
     Track quality 100.0 %
     Test CRC D6EB6D9D
     Copy CRC D6EB6D9D
     Accurately ripped (confidence 1)  [E5AF09F0]
     Copy OK
Track  6
     Filename 06 - Skating Rink.wav
     Peak level 100.0 %
     Track quality 100.0 %
     Test CRC FC7B9D99
     Copy CRC FC7B9D99
     Accurately ripped (confidence 1)  [4975E8FC]
     Copy OK
Track  7
     Filename 07 - Match.wav
     Peak level 100.0 %
     Track quality 100.0 %
     Test CRC 7B6D5DB9
     Copy CRC 7B6D5DB9
     Accurately ripped (confidence 1)  [1E0B2EF0]
     Copy OK
Track  8
     Filename 08 - Killing Spree.wav
     Peak level 100.0 %
     Track quality 99.9 %
     Test CRC 122E9712
     Copy CRC 122E9712
     Accurately ripped (confidence 1)  [5E6CBB15]
     Copy OK
Track  9
     Filename 09 - Leftover Love.wav
     Peak level 100.0 %
     Track quality 100.0 %
     Test CRC 6381E0F2
     Copy CRC 6381E0F2
     Accurately ripped (confidence 1)  [6673AD32]
     Copy OK
Track 10
     Filename 10 - Note 2 Self.wav
     Peak level 100.0 %
     Track quality 100.0 %
     Test CRC 88E5321E
     Copy CRC 88E5321E
     Accurately ripped (confidence 1)  [342E47F9]
     Copy OK
All tracks accurately ripped
No errors occurred
End of status report
Код:
REM GENRE Pop-Rock
REM DATE 2009
REM DISCID 7D078F0A
REM COMMENT "ExactAudioCopy v0.99pb5"
PERFORMER "Emm Gryner"
TITLE "Goddess"
FILE "01 - Let It Snow.wav" WAVE
  TRACK 01 AUDIO
    FLAGS DCP
    INDEX 01 00:00:00
FILE "02 - Goddess.wav" WAVE
  TRACK 02 AUDIO
    FLAGS DCP
    INDEX 01 00:00:00
FILE "03 - Young As The Night.wav" WAVE
  TRACK 03 AUDIO
    FLAGS DCP
    INDEX 01 00:00:00
FILE "04 - Empty Hole.wav" WAVE
  TRACK 04 AUDIO
    FLAGS DCP
    INDEX 01 00:00:00
FILE "05 - Die Evergreen.wav" WAVE
  TRACK 05 AUDIO
    FLAGS DCP
    INDEX 01 00:00:00
FILE "06 - Skating Rink.wav" WAVE
  TRACK 06 AUDIO
    FLAGS DCP
    INDEX 01 00:00:00
FILE "07 - Match.wav" WAVE
  TRACK 07 AUDIO
    FLAGS DCP
    INDEX 01 00:00:00
FILE "08 - Killing Spree.wav" WAVE
  TRACK 08 AUDIO
    FLAGS DCP
    INDEX 01 00:00:00
FILE "09 - Leftover Love.wav" WAVE
  TRACK 09 AUDIO
    FLAGS DCP
    INDEX 01 00:00:00
FILE "10 - Note 2 Self.wav" WAVE
  TRACK 10 AUDIO
    FLAGS DCP
    INDEX 01 00:00:00
Код:
Started at: вторник, 22. 12. 2009. - 13:34.39
10 files found
01 -===- C:\Downloads\Music\Другое\Emm Gryner - Goddess (2009)\01 - Let It Snow.flac
  Extracted successfully
  Conclusion: This track looks like CDDA with probability 99%
  Tempfile successfully deleted.
02 -===- C:\Downloads\Music\Другое\Emm Gryner - Goddess (2009)\02 - Goddess.flac
  Extracted successfully
  Conclusion: This track looks like CDDA with probability 100%
  Tempfile successfully deleted.
03 -===- C:\Downloads\Music\Другое\Emm Gryner - Goddess (2009)\03 - Young As The Night.flac
  Extracted successfully
  Conclusion: This track looks like CDDA with probability 100%
  Tempfile successfully deleted.
04 -===- C:\Downloads\Music\Другое\Emm Gryner - Goddess (2009)\04 - Empty Hole.flac
  Extracted successfully
  Conclusion: This track looks like CDDA with probability 100%
  Tempfile successfully deleted.
05 -===- C:\Downloads\Music\Другое\Emm Gryner - Goddess (2009)\05 - Die Evergreen.flac
  Extracted successfully
  Conclusion: This track looks like CDDA with probability 100%
  Tempfile successfully deleted.
06 -===- C:\Downloads\Music\Другое\Emm Gryner - Goddess (2009)\06 - Skating Rink.flac
  Extracted successfully
  Conclusion: This track looks like CDDA with probability 100%
  Tempfile successfully deleted.
07 -===- C:\Downloads\Music\Другое\Emm Gryner - Goddess (2009)\07 - Match.flac
  Extracted successfully
  Conclusion: This track looks like CDDA with probability 100%
  Tempfile successfully deleted.
08 -===- C:\Downloads\Music\Другое\Emm Gryner - Goddess (2009)\08 - Killing Spree.flac
  Extracted successfully
  Conclusion: This track looks like CDDA with probability 100%
  Tempfile successfully deleted.
09 -===- C:\Downloads\Music\Другое\Emm Gryner - Goddess (2009)\09 - Leftover Love.flac
  Extracted successfully
  Conclusion: This track looks like CDDA with probability 100%
  Tempfile successfully deleted.
10 -===- C:\Downloads\Music\Другое\Emm Gryner - Goddess (2009)\10 - Note 2 Self.flac
  Extracted successfully
  Conclusion: This track looks like CDDA with probability 100%
  Tempfile successfully deleted.
Finished at: вторник, 22. 12. 2009. - 13:41.16 (operation time: 0:06.37)
Правила, инструкции, FAQ!!!
Торрент  Добавлен [26 мар 2019, 19:27] Скачать торрент Магнет ссылка
Скачать торрент
[ Размер 18.59 КБ / Просмотров 1 ]

Статус
Проверен 
 
Размер  223.73 МБ
Приватный: Нет (DHT включён)
.torrent скачан  0
 


     Отправить личное сообщение
   
Страница 1 из 1
Показать сообщения за:  Поле сортировки  
Начать новую тему Ответить на тему


Сейчас этот форум просматривают: нет зарегистрированных пользователей и гости: 0


Вы не можете начинать темы
Вы не можете отвечать на сообщения
Вы не можете редактировать свои сообщения
Вы не можете удалять свои сообщения
Вы не можете добавлять вложения

Перейти:  
cron