Начать новую тему Ответить на тему
Статистика раздачи
Размер: 229.78 МБ | Добавлен: 28 апр 2020, 19:53 | Скачали: 1
Сидеров: 0  [0 байт/сек]    Личеров: 0  [0 байт/сек]
Пред. тема | След. тема 

Автор
Сообщение

СообщениеДобавлено: 28 апр 2020, 19:53 

Ответить с цитатой 

Elton John - Elton John


Жанр: Pop - Rock
Страна-производитель диска: USA
Год издания диска: 1970/198...
Лейбл: Polydor
Номер по каталогу: 827 689-2
Страна исполнителя: UK
Аудио кодек: FLAC (*.flac)
Тип рипа: image+.cue
Битрейт аудио: lossless
Продолжительность: 39:29
Источник: собственная покупка
Наличие сканов в содержимом раздачи: да, dpi 600
Трэклист:
01. Your Song 4:04
02. I Need You To Turn To 2:33
03. Take Me To The Pilot 3:46
04. No Shoestrings On Louise 3:32
05. First Episode at Hienton 4:49
06. Sixty Years On 4:35
07. Border Song 3:22
08. The Greatest Discovery 4:12
09. The Cage 3:30
10. The King Must Die 5:06

Код:
Exact Audio Copy V1.3 from 2. September 2016
EAC extraction logfile from 14. September 2019, 9:09
Elton John / Elton John (827 689-2)
Used drive  : ASUS    DRW-24D5MT   Adapter: 1  ID: 0
Read mode               : Secure
Utilize accurate stream : Yes
Defeat audio cache      : Yes
Make use of C2 pointers : No
Read offset correction                      : 6
Overread into Lead-In and Lead-Out          : No
Fill up missing offset samples with silence : Yes
Delete leading and trailing silent blocks   : No
Null samples used in CRC calculations       : Yes
Used interface                              : Native Win32 interface for Win NT & 2000
Used output format              : User Defined Encoder
Selected bitrate                : 768 kBit/s
Quality                         : High
Add ID3 tag                     : No
Command line compressor         : C:\Program Files (x86)\Exact Audio Copy\Flac\flac.exe
Additional command line options : -V -8 -T "Genre=%genre%" -T "Artist=%artist%" -T "Title=%title%" -T "Album=%albumtitle%" -T "Date=%year%" -T "Tracknumber=%tracknr%" -T "Comment=%comment%" %source%
TOC of the extracted CD
     Track |   Start  |  Length  | Start sector | End sector
    ---------------------------------------------------------
        1  |  0:00.33 |  4:04.12 |        33    |    18344
        2  |  4:04.45 |  2:33.03 |     18345    |    29822
        3  |  6:37.48 |  3:46.35 |     29823    |    46807
        4  | 10:24.08 |  3:31.40 |     46808    |    62672
        5  | 13:55.48 |  4:48.47 |     62673    |    84319
        6  | 18:44.20 |  4:34.60 |     84320    |   104929
        7  | 23:19.05 |  3:21.70 |    104930    |   120074
        8  | 26:41.00 |  4:12.30 |    120075    |   139004
        9  | 30:53.30 |  3:30.33 |    139005    |   154787
       10  | 34:23.63 |  5:06.05 |    154788    |   177742
Range status and errors
Selected range
     Filename I:\dafnaplus\Elton John\Elton John - Elton John (827 689-2).wav
     Peak level 100.0 %
     Extraction speed 1.6 X
     Range quality 100.0 %
     Test CRC CEBC01EB
     Copy CRC CEBC01EB
     Copy OK
No errors occurred
AccurateRip summary
Track  1  accurately ripped (confidence 27)  [CAEE5CCE]  (AR v2)
Track  2  accurately ripped (confidence 27)  [DD3DF99E]  (AR v2)
Track  3  accurately ripped (confidence 27)  [5B61B24F]  (AR v2)
Track  4  accurately ripped (confidence 28)  [74C5531A]  (AR v2)
Track  5  accurately ripped (confidence 27)  [52353073]  (AR v2)
Track  6  accurately ripped (confidence 28)  [279D2AAC]  (AR v2)
Track  7  accurately ripped (confidence 27)  [7B83FCA0]  (AR v2)
Track  8  accurately ripped (confidence 27)  [C08F747F]  (AR v2)
Track  9  accurately ripped (confidence 28)  [CA1DF7A0]  (AR v2)
Track 10  accurately ripped (confidence 22)  [AE2C3BFB]  (AR v2)
All tracks accurately ripped
End of status report
---- CUETools DB Plugin V2.1.6
[CTDB TOCID: 9KM6rH4KDLTlrAh67VbQeV.8_L4-] found
Submit result: 9KM6rH4KDLTlrAh67VbQeV.8_L4- has been confirmed
Track | CTDB Status
  1   | (32/38) Accurately ripped
  2   | (32/38) Accurately ripped
  3   | (32/38) Accurately ripped
  4   | (32/38) Accurately ripped
  5   | (32/38) Accurately ripped
  6   | (32/38) Accurately ripped
  7   | (32/38) Accurately ripped
  8   | (32/38) Accurately ripped
  9   | (31/38) Accurately ripped
 10   | (32/38) Accurately ripped
==== Log checksum 1DE2FAC4DE7E33BF9B36976354CFB59BC97EDC6E04DEE73EFC75524443455803 ====
Код:
REM GENRE Rock
REM DATE 1992
REM DISCID 7D09410A
REM COMMENT "ExactAudioCopy v1.3"
PERFORMER "Elton John"
TITLE "Elton John (827 689-2)"
REM COMPOSER ""
FILE "Elton John - Elton John (827 689-2).flac" WAVE
  TRACK 01 AUDIO
    TITLE "Your Song"
    PERFORMER "Elton John"
    REM COMPOSER ""
    INDEX 00 00:00:00
    INDEX 01 00:00:33
  TRACK 02 AUDIO
    TITLE "I Need You To Turn To"
    PERFORMER "Elton John"
    REM COMPOSER ""
    INDEX 00 04:01:40
    INDEX 01 04:04:45
  TRACK 03 AUDIO
    TITLE "Take Me To The Pilot"
    PERFORMER "Elton John"
    REM COMPOSER ""
    INDEX 00 06:35:45
    INDEX 01 06:37:48
  TRACK 04 AUDIO
    TITLE "No Shoestrings On Louise"
    PERFORMER "Elton John"
    REM COMPOSER ""
    INDEX 00 10:23:15
    INDEX 01 10:24:08
  TRACK 05 AUDIO
    TITLE "First Episode at Hienton"
    PERFORMER "Elton John"
    REM COMPOSER ""
    INDEX 00 13:53:23
    INDEX 01 13:55:48
  TRACK 06 AUDIO
    TITLE "Sixty Years On"
    PERFORMER "Elton John"
    REM COMPOSER ""
    INDEX 00 18:42:25
    INDEX 01 18:44:20
  TRACK 07 AUDIO
    TITLE "Border Song"
    PERFORMER "Elton John"
    REM COMPOSER ""
    INDEX 00 23:17:48
    INDEX 01 23:19:05
  TRACK 08 AUDIO
    TITLE "The Greatest Discovery"
    PERFORMER "Elton John"
    REM COMPOSER ""
    INDEX 00 26:39:40
    INDEX 01 26:41:00
  TRACK 09 AUDIO
    TITLE "The Cage"
    PERFORMER "Elton John"
    REM COMPOSER ""
    INDEX 00 30:50:63
    INDEX 01 30:53:30
  TRACK 10 AUDIO
    TITLE "The King Must Die"
    PERFORMER "Elton John"
    REM COMPOSER ""
    INDEX 00 34:20:08
    INDEX 01 34:23:63
Код:
foobar2000 1.3.16 / Dynamic Range Meter 1.1.1
log date: 2019-09-14 09:19:42
--------------------------------------------------------------------------------
Analyzed: Elton John / Elton John (827 689-2)
--------------------------------------------------------------------------------
DR         Peak         RMS     Duration Track
--------------------------------------------------------------------------------
DR12      -1.44 dB   -17.25 dB      4:04 01-Your Song
DR13      -1.72 dB   -19.29 dB      2:33 02-I Need You To Turn To
DR14       0.00 dB   -15.93 dB      3:46 03-Take Me To The Pilot
DR14       0.00 dB   -15.28 dB      3:32 04-No Shoestrings On Louise
DR11      -2.47 dB   -18.91 dB      4:49 05-First Episode at Hienton
DR12      -2.95 dB   -20.18 dB      4:35 06-Sixty Years On
DR11      -0.20 dB   -16.71 dB      3:22 07-Border Song
DR12      -3.20 dB   -19.37 dB      4:12 08-The Greatest Discovery
DR13      -0.20 dB   -15.71 dB      3:30 09-The Cage
DR14      -0.20 dB   -17.75 dB      5:06 10-The King Must Die
--------------------------------------------------------------------------------
Number of tracks:  10
Official DR value: DR13
Samplerate:        44100 Hz
Channels:          2
Bits per sample:   16
Bitrate:           717 kbps
Codec:             FLAC
================================================================================

Правила, инструкции, FAQ!!!
Торрент  Добавлен [28 апр 2020, 19:53] Скачать торрент Магнет ссылка
Скачать торрент
[ Размер 19.23 КБ / Просмотров 8 ]

Статус
Проверен 
 
Размер  229.78 МБ
Приватный: Нет (DHT включён)
.torrent скачан  1
 


     Отправить личное сообщение
   
Страница 1 из 1
Показать сообщения за:  Поле сортировки  
Начать новую тему Ответить на тему


Сейчас этот форум просматривают: нет зарегистрированных пользователей и гости: 0


Вы не можете начинать темы
Вы не можете отвечать на сообщения
Вы не можете редактировать свои сообщения
Вы не можете удалять свои сообщения
Вы не можете добавлять вложения

Перейти:  
cron