Начать новую тему Ответить на тему
Статистика раздачи
Размер: 499.28 МБ | Добавлен: 28 апр 2020, 19:49 | Скачали: 1
Сидеров: 3  [0 байт/сек]    Личеров: 1  [0 байт/сек]
Пред. тема | След. тема 

Автор
Сообщение

СообщениеДобавлено: 28 апр 2020, 19:49 

Ответить с цитатой 


Elton John - 1975 – Rock Of The Westies (Japan 2019 SHM Remaster)

Жанр: Pop-Rock
Страна-производитель диска: Japan
Год издания диска: 2019
Издатель (лейбл): Mercury
Номер по каталогу: UICY-78965
Страна: England
Продолжительность: 43.42:82
Matrix: [Universal logo] UICY-78965 1 IFPI L278 [IFPI 45M5]
Тип рипа: tracks+.cue
Источник: snakesharmer
Сканы: Полностью - 600dpi
Cardboard sleeve reissue release from Elton John features SHM-CD format. The mini LP faithfully replicates the UK first pressing LP design (gatefold). An obi faithfully replicating the Japanese first pressing LP design. Uses the master made in 2018 based on the UK analog tapes. Comes with lyrics and a description. This series features the following titles: "Empty Sky", "Elton John", "Tumbleweed Connection", "Madman Across The Water", "Honky Chateau", "Don't Shoot Me I'm Only The Piano Player", "Goodbye Yellow Brick Road", "Caribou", "Greatest Hits", "Captain Fantastic And The Brown Dirt Cowboy", "Rock Of The Westies", "Blue Moves", and "Greatest Hits Volume 2".

01. Medley(Yell Help, Wednesday Night, Ugly) [0:06:16.03]
02. Dan Dare (Pilot of the Future) [0:03:30.03]
03. Island Girl [0:03:42.55]
04. Grow Some Funk of Your Own [0:04:44.74]
05. I Feel Like a Bullet (in the Gun of Robert Ford) [0:05:25.31]
06. Street Kids [0:06:22.62]
07. Hard Luck Story [0:05:15.32]
08. Feed Me [0:04:00.66]
09. Billy Bones and the White Bird [0:04:24.46]
Код:
foobar2000 1.5 / Замер динамического диапазона (DR) 1.1.1
Дата отчёта:  2020-02-29 21:40:48
--------------------------------------------------------------------------------
Анализ:   Elton John / Rock of the Westies
--------------------------------------------------------------------------------
DR         Пики         RMS           Продолжительность трека
--------------------------------------------------------------------------------
DR13      -2.02 дБ   -18.38 дБ      6:16 01-Medley(Yell Help, Wednesday Night, Ugly)
DR13      -2.13 дБ   -17.61 дБ      3:30 02-Dan Dare (Pilot of the Future)
DR13      -1.31 дБ   -16.27 дБ      3:43 03-Island Girl
DR13      -1.97 дБ   -17.06 дБ      4:45 04-Grow Some Funk of Your Own
DR13      -4.26 дБ   -20.14 дБ      5:25 05-I Feel Like a Bullet (in the Gun of Robert Ford)
DR13      -0.77 дБ   -15.40 дБ      6:23 06-Street Kids
DR12       0.00 дБ   -15.28 дБ      5:15 07-Hard Luck Story
DR13      -1.22 дБ   -16.07 дБ      4:01 08-Feed Me
DR12      -0.68 дБ   -15.30 дБ      4:25 09-Billy Bones and the White Bird
--------------------------------------------------------------------------------
Количество треков: 9
Реальные значения DR: DR13
Частота:   44100 Гц
Каналов:   2
Разрядность:   16
Битрейт:   870 кбит/с
Кодек:   FLAC
================================================================================
Код:
REM GENRE rock
REM DISCID 6E0A3E09
REM COMMENT "ExactAudioCopy v1.3"
PERFORMER "Elton John"
TITLE "Rock of the Westies"
REM COMPOSER ""
FILE "01 Medley(Yell Help, Wednesday Night, Ugly).wav" WAVE
  TRACK 01 AUDIO
    TITLE "Medley(Yell Help, Wednesday Night, Ugly)"
    PERFORMER "Elton John"
    REM COMPOSER ""
    INDEX 01 00:00:00
FILE "02 Dan Dare (Pilot of the Future).wav" WAVE
  TRACK 02 AUDIO
    TITLE "Dan Dare (Pilot of the Future)"
    PERFORMER "Elton John"
    REM COMPOSER ""
    INDEX 01 00:00:00
FILE "03 Island Girl.wav" WAVE
  TRACK 03 AUDIO
    TITLE "Island Girl"
    PERFORMER "Elton John"
    REM COMPOSER ""
    INDEX 01 00:00:00
FILE "04 Grow Some Funk of Your Own.wav" WAVE
  TRACK 04 AUDIO
    TITLE "Grow Some Funk of Your Own"
    PERFORMER "Elton John"
    REM COMPOSER ""
    INDEX 01 00:00:00
FILE "05 I Feel Like a Bullet (in the Gun of Robert Ford).wav" WAVE
  TRACK 05 AUDIO
    TITLE "I Feel Like a Bullet (in the Gun of Robert Ford)"
    PERFORMER "Elton John"
    REM COMPOSER ""
    INDEX 01 00:00:00
FILE "06 Street Kids.wav" WAVE
  TRACK 06 AUDIO
    TITLE "Street Kids"
    PERFORMER "Elton John"
    REM COMPOSER ""
    INDEX 01 00:00:00
FILE "07 Hard Luck Story.wav" WAVE
  TRACK 07 AUDIO
    TITLE "Hard Luck Story"
    PERFORMER "Elton John"
    REM COMPOSER ""
    INDEX 01 00:00:00
FILE "08 Feed Me.wav" WAVE
  TRACK 08 AUDIO
    TITLE "Feed Me"
    PERFORMER "Elton John"
    REM COMPOSER ""
    INDEX 01 00:00:00
FILE "09 Billy Bones and the White Bird.wav" WAVE
  TRACK 09 AUDIO
    TITLE "Billy Bones and the White Bird"
    PERFORMER "Elton John"
    REM COMPOSER ""
    INDEX 01 00:00:00
 
Код:
Exact Audio Copy V1.3 from 2. September 2016
EAC extraction logfile from 29. February 2020, 21:40
Elton John / Rock of the Westies
Used drive  : PLEXTOR DVDR   PX-L890SA   Adapter: 1  ID: 0
Read mode               : Secure
Utilize accurate stream : Yes
Defeat audio cache      : Yes
Make use of C2 pointers : No
Read offset correction                      : 6
Overread into Lead-In and Lead-Out          : No
Fill up missing offset samples with silence : Yes
Delete leading and trailing silent blocks   : No
Null samples used in CRC calculations       : Yes
Used interface                              : Native Win32 interface for Win NT & 2000
Gap handling                                : Appended to previous track
Used output format              : User Defined Encoder
Selected bitrate                : 1024 kBit/s
Quality                         : High
Add ID3 tag                     : No
Command line compressor         : C:\Program Files (x86)\Exact Audio Copy\Flac\flac.exe
Additional command line options : -8 -V -T "ARTIST=%artist%" -T "TITLE=%title%" -T "ALBUM=%albumtitle%" -T "DATE=%year%" -T "TRACKNUMBER=%tracknr%" -T "GENRE=%genre%" -T "PERFORMER=%albuminterpret%" -T "COMPOSER=%composer%" %haslyrics%--tag-from-file=LYRICS="%lyricsfile%"%haslyrics% -T "ALBUMARTIST=%albumartist%" -T "DISCNUMBER=%cdnumber%" -T "TOTALDISCS=%totalcds%" -T "TOTALTRACKS=%numtracks%" -T "COMMENT=%comment%" %source% -o %dest%
TOC of the extracted CD
     Track |   Start  |  Length  | Start sector | End sector
    ---------------------------------------------------------
        1  |  0:00.00 |  6:16.03 |         0    |    28202
        2  |  6:16.03 |  3:30.03 |     28203    |    43955
        3  |  9:46.06 |  3:42.55 |     43956    |    60660
        4  | 13:28.61 |  4:44.74 |     60661    |    82034
        5  | 18:13.60 |  5:25.31 |     82035    |   106440
        6  | 23:39.16 |  6:22.62 |    106441    |   135152
        7  | 30:02.03 |  5:15.32 |    135153    |   158809
        8  | 35:17.35 |  4:00.66 |    158810    |   176875
        9  | 39:18.26 |  4:24.46 |    176876    |   196721
Track  1
     Filename H:\AUDIO\MUSIC\Elton John Japan\1975. Elton John - Rock Of The Westies (Mercury UICY-78965, Japan, SHM)\01 Medley(Yell Help, Wednesday Night, Ugly).wav
     Pre-gap length  0:00:02.00
     Peak level 79.2 %
     Extraction speed 5.5 X
     Track quality 100.0 %
     Test CRC 4B132C6A
     Copy CRC 4B132C6A
     Accurately ripped (confidence 2)  [56CE3359]  (AR v2)
     Copy OK
Track  2
     Filename H:\AUDIO\MUSIC\Elton John Japan\1975. Elton John - Rock Of The Westies (Mercury UICY-78965, Japan, SHM)\02 Dan Dare (Pilot of the Future).wav
     Peak level 78.2 %
     Extraction speed 5.8 X
     Track quality 100.0 %
     Test CRC 5C080F11
     Copy CRC 5C080F11
     Accurately ripped (confidence 2)  [4F1C7B1D]  (AR v2)
     Copy OK
Track  3
     Filename H:\AUDIO\MUSIC\Elton John Japan\1975. Elton John - Rock Of The Westies (Mercury UICY-78965, Japan, SHM)\03 Island Girl.wav
     Peak level 85.9 %
     Extraction speed 5.4 X
     Track quality 99.9 %
     Test CRC 6720C500
     Copy CRC 6720C500
     Accurately ripped (confidence 2)  [5C12EB30]  (AR v2)
     Copy OK
Track  4
     Filename H:\AUDIO\MUSIC\Elton John Japan\1975. Elton John - Rock Of The Westies (Mercury UICY-78965, Japan, SHM)\04 Grow Some Funk of Your Own.wav
     Peak level 79.6 %
     Extraction speed 7.0 X
     Track quality 100.0 %
     Test CRC 5F7C3C64
     Copy CRC 5F7C3C64
     Accurately ripped (confidence 2)  [3F9B5173]  (AR v2)
     Copy OK
Track  5
     Filename H:\AUDIO\MUSIC\Elton John Japan\1975. Elton John - Rock Of The Westies (Mercury UICY-78965, Japan, SHM)\05 I Feel Like a Bullet (in the Gun of Robert Ford).wav
     Peak level 61.2 %
     Extraction speed 7.6 X
     Track quality 100.0 %
     Test CRC 8C3BB6E7
     Copy CRC 8C3BB6E7
     Accurately ripped (confidence 2)  [081B37A8]  (AR v2)
     Copy OK
Track  6
     Filename H:\AUDIO\MUSIC\Elton John Japan\1975. Elton John - Rock Of The Westies (Mercury UICY-78965, Japan, SHM)\06 Street Kids.wav
     Peak level 91.4 %
     Extraction speed 8.3 X
     Track quality 100.0 %
     Test CRC E898B38E
     Copy CRC E898B38E
     Accurately ripped (confidence 2)  [E58D3C69]  (AR v2)
     Copy OK
Track  7
     Filename H:\AUDIO\MUSIC\Elton John Japan\1975. Elton John - Rock Of The Westies (Mercury UICY-78965, Japan, SHM)\07 Hard Luck Story.wav
     Peak level 100.0 %
     Extraction speed 8.5 X
     Track quality 100.0 %
     Test CRC 28CFD2CC
     Copy CRC 28CFD2CC
     Accurately ripped (confidence 2)  [ECFB2121]  (AR v2)
     Copy OK
Track  8
     Filename H:\AUDIO\MUSIC\Elton John Japan\1975. Elton John - Rock Of The Westies (Mercury UICY-78965, Japan, SHM)\08 Feed Me.wav
     Peak level 86.9 %
     Extraction speed 8.7 X
     Track quality 100.0 %
     Test CRC 66CDC919
     Copy CRC 66CDC919
     Accurately ripped (confidence 2)  [2B073485]  (AR v2)
     Copy OK
Track  9
     Filename H:\AUDIO\MUSIC\Elton John Japan\1975. Elton John - Rock Of The Westies (Mercury UICY-78965, Japan, SHM)\09 Billy Bones and the White Bird.wav
     Peak level 92.4 %
     Extraction speed 8.2 X
     Track quality 99.9 %
     Test CRC BA5E4003
     Copy CRC BA5E4003
     Accurately ripped (confidence 2)  [C03C6F1B]  (AR v2)
     Copy OK
All tracks accurately ripped
No errors occurred
End of status report
==== Log checksum EDE5A3157C7208A4F2D762B16809E5721D5D16B29A05D2B8D6BC2094F593E2EA ====
 
Правила, инструкции, FAQ!!!
Торрент  Добавлен [28 апр 2020, 19:49] Скачать торрент Магнет ссылка
Скачать торрент
[ Размер 21.94 КБ / Просмотров 8 ]

Статус
Проверен 
 
Размер  499.28 МБ
Приватный: Нет (DHT включён)
.torrent скачан  1
 


     Отправить личное сообщение
   
Страница 1 из 1
Показать сообщения за:  Поле сортировки  
Начать новую тему Ответить на тему


Сейчас этот форум просматривают: нет зарегистрированных пользователей и гости: 0


Вы не можете начинать темы
Вы не можете отвечать на сообщения
Вы не можете редактировать свои сообщения
Вы не можете удалять свои сообщения
Вы не можете добавлять вложения

Перейти:  
cron