Начать новую тему Ответить на тему
Статистика раздачи
Размер: 53.69 МБ | Добавлен: 26 мар 2019, 20:28 | Скачали: 0
Сидеров: 0  [0 байт/сек]    Личеров: 0  [0 байт/сек]
Пред. тема | След. тема 

Автор
Сообщение

СообщениеДобавлено: 26 мар 2019, 20:28 

Ответить с цитатой 

Vitamin C Featuring Lady Saw / Smile (2 Tracks Single)
Жанр: Pop Rock, Electronic
Носитель: CDS
Страна-производитель диска (релиза): US
Год издания: 1999
Издатель (лейбл): Elektra ‎
Номер по каталогу: 64041-2
Страна исполнителя (группы): US
Аудиокодек: FLAC (*.flac)
Тип рипа: tracks+.cue
Битрейт аудио: lossless
Продолжительность: 8:03
Источник (релизер): Собственный рип
Наличие сканов в содержимом раздачи: нет
Треклист:
01. Album Version [4:00]
02. Maserati Mix [4:03]
Код:
Exact Audio Copy V1.3 from 2. September 2016
EAC extraction logfile from 27. December 2018, 17:01
Vitamin C / Smile (Single)
Used drive  : Optiarc DVD RW AD-7710H   Adapter: 1  ID: 0
Read mode               : Secure
Utilize accurate stream : Yes
Defeat audio cache      : Yes
Make use of C2 pointers : No
Read offset correction                      : 48
Overread into Lead-In and Lead-Out          : No
Fill up missing offset samples with silence : Yes
Delete leading and trailing silent blocks   : No
Null samples used in CRC calculations       : Yes
Used interface                              : Native Win32 interface for Win NT & 2000
Gap handling                                : Appended to previous track
Used output format              : User Defined Encoder
Selected bitrate                : 1024 kBit/s
Quality                         : High
Add ID3 tag                     : No
Command line compressor         : C:\Program Files (x86)\Exact Audio Copy\FLAC\FLAC.EXE
Additional command line options : -6 -V -T "ARTIST=%artist%" -T "TITLE=%title%" -T "ALBUM=%albumtitle%" -T "DATE=%year%" -T "TRACKNUMBER=%tracknr%" -T "GENRE=%genre%" -T "COMMENT=%comment%" -T "BAND=%albuminterpret%" -T "ALBUMARTIST=%albuminterpret%" -T "COMPOSER=%composer%" %haslyrics%--tag-from-file=LYRICS="%lyricsfile%"%haslyrics% -T "DISCNUMBER=%cdnumber%" -T "TOTALDISCS=%totalcds%" -T "TOTALTRACKS=%numtracks%" %hascover%--picture="%coverfile%"%hascover% %source% -o %dest%
TOC of the extracted CD
     Track |   Start  |  Length  | Start sector | End sector
    ---------------------------------------------------------
        1  |  0:00.00 |  4:00.20 |         0    |    18019
        2  |  4:00.20 |  4:03.07 |     18020    |    36251
        3  | 10:35.27 | 18:52.26 |     47652    |   132577
Track  1
     Filename C:\Users\José e Rosaura\Desktop\Vitamin C - Smile (Single)\01. Smile (Album Version).wav
     Pre-gap length  0:00:02.00
     Peak level 100.0 %
     Extraction speed 2.7 X
     Track quality 100.0 %
     Test CRC BD29468F
     Copy CRC BD29468F
     Accurately ripped (confidence 13)  [DF95D088]  (AR v2)
     Copy OK
Track  2
     Filename C:\Users\José e Rosaura\Desktop\Vitamin C - Smile (Single)\02. Smile (Maserati Mix).wav
     Pre-gap length  0:00:02.43
     Peak level 100.0 %
     Extraction speed 3.1 X
     Track quality 100.0 %
     Test CRC 75FE1D0E
     Copy CRC 75FE1D0E
     Accurately ripped (confidence 13)  [9AC64B9B]  (AR v2)
     Copy OK
All tracks accurately ripped
No errors occurred
End of status report
---- CUETools DB Plugin V2.1.6
[CTDB TOCID: MAXskq7ARrP4Z5IqRX0eo77Ld0Q-] found
Submit result: already submitted
Track | CTDB Status
  1   | (21/21) Accurately ripped
  2   | (21/21) Accurately ripped
==== Log checksum 77667B37B4E080BD2587EADCAB02BE03476F4B829EAAD1903E2F0DD43F58CE67 ====
Код:
REM GENRE Pop
REM DATE 1999
REM DISCID 1A06E703
REM COMMENT "ExactAudioCopy v1.3"
PERFORMER "Vitamin C"
TITLE "Smile (Single)"
REM COMPOSER ""
FILE "01. Smile (Album Version).wav" WAVE
  TRACK 01 AUDIO
    TITLE "Smile (Album Version)"
    PERFORMER "Vitamin C"
    REM COMPOSER ""
    INDEX 01 00:00:00
  TRACK 02 AUDIO
    TITLE "Smile (Maserati Mix)"
    PERFORMER "Vitamin C"
    REM COMPOSER ""
    INDEX 00 03:57:52
FILE "02. Smile (Maserati Mix).wav" WAVE
    INDEX 01 00:00:00
Код:
-----------------------
DON'T MODIFY THIS FILE
-----------------------
PERFORMER: auCDtect Task Manager, ver. 1.6.0 RC1 build 1.6.0.1
Copyright (c) 2008-2010 y-soft. All rights reserved
[url=http://y-soft.org]http://y-soft.org[/url]
ANALYZER: auCDtect: CD records authenticity detector, version 0.8.2
Copyright (c) 2004 Oleg Berngardt. All rights reserved.
Copyright (c) 2004 Alexander Djourik. All rights reserved.
FILE: 01. Smile (Album Version).flac
  Size: 27795245 Hash: E52196B970DF1BCC34BAA00BB6984A52 Accuracy: -m0
  Conclusion: CDDA 100%
  Signature: 04CDC8B0D365C812A2BE4A6BF5FBB336D926135F
FILE: 02. Smile (Maserati Mix).flac
  Size: 28494836 Hash: FF8DA29B0F6A2BC51271500C249B3CD9 Accuracy: -m0
  Conclusion: CDDA 100%
  Signature: 236E4078FBDA332572322562F32061DE9620724D
Правила, инструкции, FAQ!!!
Торрент  Добавлен [26 мар 2019, 20:28] Скачать торрент Магнет ссылка
Скачать торрент
[ Размер 17.54 КБ / Просмотров 1 ]

Статус
Проверен 
 
Размер  53.69 МБ
Приватный: Нет (DHT включён)
.torrent скачан  0
 


     Отправить личное сообщение
   
Страница 1 из 1
Показать сообщения за:  Поле сортировки  
Начать новую тему Ответить на тему


Сейчас этот форум просматривают: нет зарегистрированных пользователей и гости: 0


Вы не можете начинать темы
Вы не можете отвечать на сообщения
Вы не можете редактировать свои сообщения
Вы не можете удалять свои сообщения
Вы не можете добавлять вложения

Перейти:  
cron