Начать новую тему Ответить на тему
Статистика раздачи
Размер: 495.88 МБ | Добавлен: 26 мар 2019, 20:09 | Скачали: 1
Сидеров: 0  [0 байт/сек]    Личеров: 0  [0 байт/сек]
Пред. тема | След. тема 

Автор
Сообщение

СообщениеДобавлено: 26 мар 2019, 20:09 

Ответить с цитатой 

ELAN - Kamikadze Lover (1982) & Nightshift (1984)
Жанр: Pop-Rock
Год выпуска диска: 2006
Производитель диска: Чехословакия / Словакия
Аудио кодек: APE
Тип рипа: image+.cue
Битрейт аудио: lossless
Продолжительность: 41:27 + 43:05
Трэклист:
1982 - "Kamikadze Lover"
01. Reggae Woman On The 29 th Floor 3:20
02. Waiting For Love 4:32
03. Seventy - Nine 3:47
04. I Would Like To Whisper 4:29
05. Living In The Streets 2:58
06. Castaway 3:41
07. Friend 2:38
08. She's Number One 3:56
09. I Can Feel No Mercy 2:52
10. Dutiful Marionette 2:45
11. I Know 3:52
12. Kamikadze Lover 2:32
1984 - "Nightshift"
01. Is Anybody At Home? 3:31
02. We Need One Another 3:11
03. Don't Push Me Up On The Moon 3:31
04. Why Don't We Feel Anymore 2:38
05. Love Is Gone 4:59
06. Olga D 4:01
07. Vipers In Oasis 3:22
08. Nightshift 5:25
09. Catch Me In Old Jaguar 5:13
10. Oui, je t'attends 3:42
11. Count On Your Brothers 3:32
Exact Audio Copy V0.99 prebeta 4 from 23. January 2008
Отчёт EAC об извлечении, выполненном 25. апреля 2009, 15:34
Elan / Kamikadze Lover
Дисковод: Optiarc DVD RW AD-7173A Adapter: 2 ID: 1
Режим чтения : Достоверность
Использование точного потока : Да
Отключение кэша аудио : Да
Использование указателей C2 : Нет
Коррекция смещения при чтении : 48
Способность читать области Lead-in и Lead-out : Нет
Заполнение пропущенных сэмплов тишиной : Да
Удаление блоков с тишиной в начале и конце : Нет
При вычислениях CRC использовались нулевые сэмплы : Да
Интерфейс : Установленный внешний ASPI-интерфейс
Выходной формат : Внутренние WAV-операции
Формат сэмплов : 44.100 Гц; 16 бит; стерео
TOC извлечённого CD
Трек | Старт | Длительность | Начальный сектор | Конечный сектор
---------------------------------------------------------------------
1 | 0:00.00 | 3:20.23 | 0 | 15022
2 | 3:20.23 | 4:32.48 | 15023 | 35470
3 | 7:52.71 | 3:47.45 | 35471 | 52540
4 | 11:40.41 | 4:29.60 | 52541 | 72775
5 | 16:10.26 | 2:58.62 | 72776 | 86187
6 | 19:09.13 | 3:41.61 | 86188 | 102823
7 | 22:50.74 | 2:38.08 | 102824 | 114681
8 | 25:29.07 | 3:56.47 | 114682 | 132428
9 | 29:25.54 | 2:52.20 | 132429 | 145348
10 | 32:17.74 | 2:45.14 | 145349 | 157737
11 | 35:03.13 | 3:52.27 | 157738 | 175164
12 | 38:55.40 | 2:32.25 | 175165 | 186589
Характеристики диапазона извлечения и сообщения об ошибках
Выбранный диапазон
Имя файла E:\Music_Audio\!_Extract\Elan - Kamikadze Lover.wav
Пиковый уровень 100.0 %
Качество диапазона 100.0 %
CRC копии A2A30A51
Копирование... OK
Ошибок не произошло
Конец отчёта
Exact Audio Copy V0.99 prebeta 4 from 23. January 2008
Отчёт EAC об извлечении, выполненном 25. апреля 2009, 16:50
Elan / Nightshift
Дисковод: Optiarc DVD RW AD-7173A Adapter: 2 ID: 1
Режим чтения : Достоверность
Использование точного потока : Да
Отключение кэша аудио : Да
Использование указателей C2 : Нет
Коррекция смещения при чтении : 48
Способность читать области Lead-in и Lead-out : Нет
Заполнение пропущенных сэмплов тишиной : Да
Удаление блоков с тишиной в начале и конце : Нет
При вычислениях CRC использовались нулевые сэмплы : Да
Интерфейс : Установленный внешний ASPI-интерфейс
Выходной формат : Внутренние WAV-операции
Формат сэмплов : 44.100 Гц; 16 бит; стерео
TOC извлечённого CD
Трек | Старт | Длительность | Начальный сектор | Конечный сектор
---------------------------------------------------------------------
1 | 0:00.00 | 3:31.47 | 0 | 15871
2 | 3:31.47 | 3:10.57 | 15872 | 30178
3 | 6:42.29 | 3:31.14 | 30179 | 46017
4 | 10:13.43 | 2:38.05 | 46018 | 57872
5 | 12:51.48 | 4:58.64 | 57873 | 80286
6 | 17:50.37 | 4:00.41 | 80287 | 98327
7 | 21:51.03 | 3:22.49 | 98328 | 113526
8 | 25:13.52 | 5:24.59 | 113527 | 137885
9 | 30:38.36 | 5:13.27 | 137886 | 161387
10 | 35:51.63 | 3:41.72 | 161388 | 178034
11 | 39:33.60 | 3:32.10 | 178035 | 193944
Характеристики диапазона извлечения и сообщения об ошибках
Выбранный диапазон
Имя файла E:\Music_Audio\!_Extract\Elan - Nightshift.wav
Пиковый уровень 100.0 %
Качество диапазона 100.0 %
CRC копии B82D812F
Копирование... OK
Ошибок не произошло
Конец отчёта
Доп. информация:
Состав группы:
Vaclav (Vašo) Patejdl jr. - acoustic piano, Hohner Duo, Hammond organ, Polymoog, Moog Prodigy, Monimoog, ARP 2600, vocal
Jozef (Jožo) Ráž - bass guitar, vocal
Juraj Farkas - Fender guitar, acoustic guitar, vocal
Ján Baláž - Gibson guitar, acoustic Ibanez, vocal
Zdeno Baláž - Drums

Официальный сайт
Группа ELAN создана во времена ещё объединённой Чехословакии (ныне в Словакии). Жанр их музыки - это в основном мелодичный рок, но работают они на стыке разных направлений, вплоть до регги. ELAN поистине легендарная группа у себя на Родине, известна и любима она была и в Советском Союзе. Начало дискографии было положено в 1981 году. И уже в 1982 году был выпущен их хитовый диск "Kamikadze Lover" на английском языке, "Nie sme zlí" так назывался вариант этого альбома на родном языке. Группа существует и поныне, не прекращает выступать с гастролями. За всё время их существования было выпущено около 30 альбомов.
Ещё 2 альбома группы ELAN - School Party (1985) & Missing (1987)
Другие альбомы группы ELAN в mp3 формате можно найти здесь
DVD -> Elán (Elan) - Megakoncert (Praha 2003)
Правила, инструкции, FAQ!!!
Торрент  Добавлен [26 мар 2019, 20:09] Скачать торрент Магнет ссылка
Скачать торрент
[ Размер 20.93 КБ / Просмотров 5 ]

Статус
Проверен 
 
Размер  495.88 МБ
Приватный: Нет (DHT включён)
.torrent скачан  1
 


     Отправить личное сообщение
   
Страница 1 из 1
Показать сообщения за:  Поле сортировки  
Начать новую тему Ответить на тему


Сейчас этот форум просматривают: нет зарегистрированных пользователей и гости: 0


Вы не можете начинать темы
Вы не можете отвечать на сообщения
Вы не можете редактировать свои сообщения
Вы не можете удалять свои сообщения
Вы не можете добавлять вложения

Перейти:  
cron