Начать новую тему Ответить на тему
Статистика раздачи
Размер: 254.44 МБ | Добавлен: 26 мар 2019, 19:34 | Скачали: 0
Сидеров: 0  [0 байт/сек]    Личеров: 0  [0 байт/сек]
Пред. тема | След. тема 

Автор
Сообщение

СообщениеДобавлено: 26 мар 2019, 19:34 

Ответить с цитатой 

Ebba Forsberg - True Love - 2001
Жанр: Pop-Rock
Год издания диска: 2001
Издатель (лейбл): Network
Номер по каталогу: MNWCD36-6
Страна: Sweden
Аудиокодек: FLAC (*.flac)
Тип рипа: tracks+.cue
Битрейт аудио: lossless
Продолжительность: 49:58
Источник (релизер): Найдено в сети
Наличие сканов в содержимом раздачи: нет
Треклист:
1 Walk Alone 2:52
2 That's How Much I Love You 3:24
3 Addict 4:01
4 Walking On Water 4:20
5 This Pain 4:03
6 Sometimes 4:14
7 Evil I Know 3:13
8 Red 4:12
9 Daybreak 5:37
10 Deep Down 3:42
Код:
Exact Audio Copy V1.0 beta 1 from 15. November 2010
EAC extraction logfile from 29. July 2011, 21:50
Ebba Forsberg / True Love
Used drive  : ASUS    DRW-24B1LT   Adapter: 0  ID: 1
Read mode               : Secure
Utilize accurate stream : Yes
Defeat audio cache      : Yes
Make use of C2 pointers : No
Read offset correction                      : 6
Overread into Lead-In and Lead-Out          : No
Fill up missing offset samples with silence : Yes
Delete leading and trailing silent blocks   : No
Null samples used in CRC calculations       : Yes
Used interface                              : Native Win32 interface for Win NT & 2000
Gap handling                                : Appended to previous track
Used output format              : User Defined Encoder
Selected bitrate                : 768 kBit/s
Quality                         : High
Add ID3 tag                     : No
Command line compressor         : F:\Exact Audio Copy\FLAC\flac.exe
Additional command line options : -V -8 -T "artist=%a" -T "title=%t" -T "album=%g" -T "date=%y" -T "tracknumber=%n" -T "genre=%m" %s
TOC of the extracted CD
     Track |   Start  |  Length  | Start sector | End sector
    ---------------------------------------------------------
        1  |  0:00.00 |  2:53.46 |         0    |    13020
        2  |  2:53.46 |  3:25.06 |     13021    |    28401
        3  |  6:18.52 |  4:00.57 |     28402    |    46458
        4  | 10:19.34 |  4:23.20 |     46459    |    66203
        5  | 14:42.54 |  4:06.12 |     66204    |    84665
        6  | 18:48.66 |  4:15.45 |     84666    |   103835
        7  | 23:04.36 |  3:15.35 |    103836    |   118495
        8  | 26:19.71 |  4:13.14 |    118496    |   137484
        9  | 30:33.10 |  5:39.59 |    137485    |   162968
       10  | 36:12.69 | 13:45.05 |    162969    |   224848
Track  1
     Filename G:\demonoid\Ebba Forsberg -  - True Love\01 - Walk Alone .wav
     Pre-gap length  0:00:02.00
     Peak level 99.4 %
     Extraction speed 3.2 X
     Track quality 100.0 %
     Test CRC DD3217B9
     Copy CRC DD3217B9
     Cannot be verified as accurate (confidence 10)  [3A7D1BF0], AccurateRip returned [A95AD8A6]
     Copy OK
Track  2
     Filename G:\demonoid\Ebba Forsberg -  - True Love\02 - That's How Much I Love You .wav
     Pre-gap length  0:00:01.57
     Peak level 100.0 %
     Extraction speed 3.6 X
     Track quality 100.0 %
     Test CRC C7878536
     Copy CRC C7878536
     Cannot be verified as accurate (confidence 10)  [EF9106FF], AccurateRip returned [C1A4AE1C]
     Copy OK
Track  3
     Filename G:\demonoid\Ebba Forsberg -  - True Love\03 - Addict .wav
     Pre-gap length  0:00:01.40
     Peak level 100.0 %
     Extraction speed 3.2 X
     Track quality 99.9 %
     Test CRC 074DFD94
     Copy CRC 074DFD94
     Cannot be verified as accurate (confidence 10)  [7D17B0AB], AccurateRip returned [4E6AD810]
     Copy OK
Track  4
     Filename G:\demonoid\Ebba Forsberg -  - True Love\04 - Walking On Water .wav
     Peak level 99.4 %
     Extraction speed 4.4 X
     Track quality 100.0 %
     Test CRC D661D913
     Copy CRC D661D913
     Cannot be verified as accurate (confidence 10)  [7117F800], AccurateRip returned [C6D2A1B8]
     Copy OK
Track  5
     Filename G:\demonoid\Ebba Forsberg -  - True Love\05 - This Pain .wav
     Pre-gap length  0:00:03.50
     Peak level 100.0 %
     Extraction speed 4.7 X
     Track quality 100.0 %
     Test CRC 95BF0340
     Copy CRC 95BF0340
     Cannot be verified as accurate (confidence 10)  [A2F10FA7], AccurateRip returned [91CFA8F0]
     Copy OK
Track  6
     Filename G:\demonoid\Ebba Forsberg -  - True Love\06 - Sometimes .wav
     Pre-gap length  0:00:02.86
     Peak level 99.7 %
     Extraction speed 5.0 X
     Track quality 100.0 %
     Test CRC E6A5E969
     Copy CRC E6A5E969
     Cannot be verified as accurate (confidence 10)  [ACF46669], AccurateRip returned [2CABCA2F]
     Copy OK
Track  7
     Filename G:\demonoid\Ebba Forsberg -  - True Love\07 - Evil I Know .wav
     Peak level 99.4 %
     Extraction speed 5.1 X
     Track quality 100.0 %
     Test CRC 3B9E6918
     Copy CRC 3B9E6918
     Cannot be verified as accurate (confidence 10)  [7F19C964], AccurateRip returned [1D1D9663]
     Copy OK
Track  8
     Filename G:\demonoid\Ebba Forsberg -  - True Love\08 - Red .wav
     Pre-gap length  0:00:02.40
     Peak level 99.6 %
     Extraction speed 5.5 X
     Track quality 100.0 %
     Test CRC 82375CD8
     Copy CRC 82375CD8
     Cannot be verified as accurate (confidence 10)  [957E988B], AccurateRip returned [D46DCF92]
     Copy OK
Track  9
     Filename G:\demonoid\Ebba Forsberg -  - True Love\09 - Daybreak .wav
     Pre-gap length  0:00:00.85
     Peak level 99.7 %
     Extraction speed 6.0 X
     Track quality 100.0 %
     Test CRC 3FD25A4E
     Copy CRC 3FD25A4E
     Cannot be verified as accurate (confidence 10)  [808CA040], AccurateRip returned [EA057E4E]
     Copy OK
Track 10
     Filename G:\demonoid\Ebba Forsberg -  - True Love\10 - Deep Down .wav
     Pre-gap length  0:00:02.86
     Peak level 99.7 %
     Extraction speed 7.0 X
     Track quality 100.0 %
     Test CRC B1DD641F
     Copy CRC B1DD641F
     Cannot be verified as accurate (confidence 9)  [7790309F], AccurateRip returned [C720276D]
     Copy OK
No tracks could be verified as accurate
You may have a different pressing from the one(s) in the database
No errors occurred
End of status report
==== Log checksum 6608E10E52523ED6345DCDCF752AB0D799605AD5E8905003BC9061A05D7B5D98 ====
Код:
REM GENRE Rock
REM DISCID 7C0BB50A
REM COMMENT "ExactAudioCopy v1.0b1"
PERFORMER "Ebba Forsberg"
TITLE "True Love"
FILE "Ebba Forsberg -  - True Love\01 - Walk Alone .wav" WAVE
  TRACK 01 AUDIO
    TITLE "Walk Alone"
    PERFORMER "Ebba Forsberg"
    INDEX 01 00:00:00
  TRACK 02 AUDIO
    TITLE "That's How Much I Love You"
    PERFORMER "Ebba Forsberg"
    INDEX 00 02:52:03
FILE "Ebba Forsberg -  - True Love\02 - That's How Much I Love You .wav" WAVE
    INDEX 01 00:00:00
  TRACK 03 AUDIO
    TITLE "Addict"
    PERFORMER "Ebba Forsberg"
    INDEX 00 03:23:51
FILE "Ebba Forsberg -  - True Love\03 - Addict .wav" WAVE
    INDEX 01 00:00:00
FILE "Ebba Forsberg -  - True Love\04 - Walking On Water .wav" WAVE
  TRACK 04 AUDIO
    TITLE "Walking On Water"
    PERFORMER "Ebba Forsberg"
    INDEX 01 00:00:00
  TRACK 05 AUDIO
    TITLE "This Pain"
    PERFORMER "Ebba Forsberg"
    INDEX 00 04:19:57
FILE "Ebba Forsberg -  - True Love\05 - This Pain .wav" WAVE
    INDEX 01 00:00:00
  TRACK 06 AUDIO
    TITLE "Sometimes"
    PERFORMER "Ebba Forsberg"
    INDEX 00 04:03:22
FILE "Ebba Forsberg -  - True Love\06 - Sometimes .wav" WAVE
    INDEX 01 00:00:00
FILE "Ebba Forsberg -  - True Love\07 - Evil I Know .wav" WAVE
  TRACK 07 AUDIO
    TITLE "Evil I Know"
    PERFORMER "Ebba Forsberg"
    INDEX 01 00:00:00
  TRACK 08 AUDIO
    TITLE "Red"
    PERFORMER "Ebba Forsberg"
    INDEX 00 03:13:05
FILE "Ebba Forsberg -  - True Love\08 - Red .wav" WAVE
    INDEX 01 00:00:00
  TRACK 09 AUDIO
    TITLE "Daybreak"
    PERFORMER "Ebba Forsberg"
    INDEX 00 04:12:25
FILE "Ebba Forsberg -  - True Love\09 - Daybreak .wav" WAVE
    INDEX 01 00:00:00
  TRACK 10 AUDIO
    TITLE "Deep Down"
    PERFORMER "Ebba Forsberg"
    INDEX 00 05:36:69
FILE "Ebba Forsberg -  - True Love\10 - Deep Down .wav" WAVE
    INDEX 01 00:00:00
Ebba Forsberg was part of a wave of female singer/songwriters in the late '90s. Unlike many of her adult-alternative pop contemporaries, Forsberg wasn't directly influenced by alternative rock. Instead, she drew from classic pop and singer/songwriters to create a lush, melodic sound, which was showcased on her 1998 debut Been There.
A native of Sweden, Forsberg moved with her family to Tortola in the West Indies when she was five years old. Her older sister Kajsa Ribbing returned to Sweden after a year, but Forsberg and her familiy stayed in Tortola until she was 12. They then spent another year there before moving to South Africa, where she lived for eight years. During her time in South Africa, she became enamored with South African culture, jazz and pop, teaching herself how to play the piano and sing. As an adult, she returned to Sweden, where she worked as a supporting musician and vocalist for several popular Swedish acts.
Eventually, Forsberg reunited with her older sister Ribbing, and the two of them wrote the songs that formed the core of her debut album, Been There. Forsberg wrote the music, while her sister wrote the words. Her demo tape was circulated in 1997, and she signed to Maverick Records later that year. She collaborated with producer Mats Asplen on the arrangements for Been There, which was released in the spring of 1998.
A self-taught musician, Ebba Forsberg brings refreshing depth to haunting musical tales that reflect times of confusion and exploration. her voice is strong, defiant with a touch of innocence. collaborating with producer Mats Asplen, whose full bodied arrangements complement her classic style.
Her second album, ”True Love” (2001), again focused on Ebba’s songwriting skills, but added a more ”band like” feel to the production. Released only in Europe. Tracks such as ”Red,” ”Addict,” ”Walk Alone” and ”Daybreak” demonstrated a more straight-ahead dynamic to her repertoire honed from her live performances while the heavily-orchestrated ballad ”That’s How Much I Love You” showed that Ebba still possessed an uncanny ability to write a darkly passionate love song.
Self titled release has beautiful “textures” and warmth. The combination of chosen sounds/ instruments, the placement of chords/music, and the placement of “space” makes this a throughly romantic collection of songs. At times the tracks are layered thick, but there’s a feeling of blending and non-rush to the arrangements. Other tracks are acoustic enough to almost be called bare, but again, the “colors” are rich.
Правила, инструкции, FAQ!!!
Торрент  Добавлен [26 мар 2019, 19:34] Скачать торрент Магнет ссылка
Скачать торрент
[ Размер 21.02 КБ / Просмотров 1 ]

Статус
Проверен 
 
Размер  254.44 МБ
Приватный: Нет (DHT включён)
.torrent скачан  0
 


     Отправить личное сообщение
   
Страница 1 из 1
Показать сообщения за:  Поле сортировки  
Начать новую тему Ответить на тему


Сейчас этот форум просматривают: нет зарегистрированных пользователей и гости: 0


Вы не можете начинать темы
Вы не можете отвечать на сообщения
Вы не можете редактировать свои сообщения
Вы не можете удалять свои сообщения
Вы не можете добавлять вложения

Перейти:  
cron