Начать новую тему Ответить на тему
Статистика раздачи
Размер: 461.9 МБ | Добавлен: 26 мар 2019, 19:50 | Скачали: 1
Сидеров: 0  [0 байт/сек]    Личеров: 0  [0 байт/сек]
Пред. тема | След. тема 

Автор
Сообщение

СообщениеДобавлено: 26 мар 2019, 19:50 

Ответить с цитатой 

Wir - "Die Grossten Hits" -2007, FLAC (image+.cue), lossless#777Жанр: East Rock
Год выпуска диска: 2007
Производитель диска: Germany
Аудио кодек: FLAC
Тип рипа: image+.cue
Битрейт аудио: lossless
Продолжительность: 1:13:14
Трэклист:
01 Ebbe und Flut 4.40
02 Madchentraumerei 2.58
03 Und sie dreht sich doch 4.48
04 Superschlank II 4.11
05 Blutiger Sommer 4.47
06 Traum vom Fliegen 6.28
07 Lass deine Engel los 3.55
08 Oh, diese Sehnsucht am Abend 4.49
09 La?t mir meine Traume 3.27
10 Da schlug die Flamme 5.08
11 Im Spiegel deiner Augen 3.07
12 Gartenparty 3.02
13 Marie Louise 5.50
14 Heimlichkeit 4.47
15 Blinde Kuh 2.20
16 Geboren um zu leben 4.12
17 Nach dem Konzert 4.27
Доп. информация:
Состав группы:
Wolfgang Ziegler - solo-vocal /piano / mellotron / synthesizer /12 string
Hans Joachim Kluge - drums
Ingolf Zwick - lead guitar
Doris Martin - percussion / lead vocal
Thomas Reuter - bass-guitar
Отчет о ЕАС:
Exact Audio Copy V0.99 prebeta 4 from 23. January 2008
EAC extraction logfile from 21. December 2008, 18:09
Wir / Die grцssten Hits
Used drive : Optiarc DVD RW AD-7203A Adapter: 0 ID: 0
Read mode : Secure
Utilize accurate stream : Yes
Defeat audio cache : Yes
Make use of C2 pointers : No
Read offset correction : 48
Overread into Lead-In and Lead-Out : No
Fill up missing offset samples with silence : Yes
Delete leading and trailing silent blocks : No
Null samples used in CRC calculations : Yes
Used interface : Installed external ASPI interface
Used output format : User Defined Encoder
Selected bitrate : 320 kBit/s
Quality : High
Add ID3 tag : No
Command line compressor : C:\Program Files\FLAC\flac.exe
Additional command line options : -V -8 -T "artist=%a" -T "title=%t" -T "album=%g" -T "date=%y" -T "tracknumber=%n" -T "genre=%m" %s
TOC of the extracted CD
Track | Start | Length | Start sector | End sector
---------------------------------------------------------
1 | 0:00.00 | 4:41.47 | 0 | 21121
2 | 4:41.47 | 2:59.14 | 21122 | 34560
3 | 7:40.61 | 4:48.51 | 34561 | 56211
4 | 12:29.37 | 4:11.42 | 56212 | 75078
5 | 16:41.04 | 4:47.38 | 75079 | 96641
6 | 21:28.42 | 6:29.28 | 96642 | 125844
7 | 27:57.70 | 3:55.60 | 125845 | 143529
8 | 31:53.55 | 4:47.65 | 143530 | 165119
9 | 36:41.45 | 3:30.17 | 165120 | 180886
10 | 40:11.62 | 5:09.24 | 180887 | 204085
11 | 45:21.11 | 3:08.23 | 204086 | 218208
12 | 48:29.34 | 3:03.28 | 218209 | 231961
13 | 51:32.62 | 5:51.43 | 231962 | 258329
14 | 57:24.30 | 4:47.48 | 258330 | 279902
15 | 62:12.03 | 2:21.00 | 279903 | 290477
16 | 64:33.03 | 4:12.66 | 290478 | 309443
17 | 68:45.69 | 4:27.50 | 309444 | 329518
Range status and errors
Selected range
Filename F:\Lossless\Заливаю\Wir - Die grцssten Hits\Wir - Die grцssten Hits.wav
Peak level 99.0 %
Range quality 100.0 %
Test CRC 8BB4683D
Copy CRC 8BB4683D
Copy OK
No errors occurred
End of status report
Вольфган Циглер (Wolfgang Ziegler) и группа WIR
Немецкий эстрадный певец и композитор Вольфганг Циглер родился 8 октября 1943 в Ростоке. За пределами ГДР стал известен в 1987 своим сольным проектом "Verdammt!".
Сначала Вольфганг Циглер получил диплом по специальности сельскохозяйственные двигатели. Но уже в 60- ые годы он начал музицировать. Начинал в "Beat-Quartett", который был популярен на севере ГДР. В нем он играл вместе с Peter Zimmermann (b), Eckhard Woytowicz (as, ts, cl, g), Knud Benedict (mel, g), H.-Joachim Seering (dr).
С 1970 по 1973 Вольфганг Циглер учится в Студии вокального искусства и композиции в институте Hans-Eisler-Hochschule в Берлине. В 1972 он основывает группу Wir, с которой он проработал 14 лет.
В 1986 Вольфганг Циглер начал сольную карьеру. Проект "Verdammt!" был его самым успешным! (1987).
Дискография WIR:
* 1976/77 Im Spiegel Deiner Augen
* 1978 WIR
* 1978 Zeit
* 1978 Und so spielen wir woran wir glauben
* 1984 Ebbe und Flut
* 1984 Wenn die Flut kommt
* 1988 Halt mich
* 1992 Weil ich Dich liebe
* 1993 Wir gehören zusammen
* 1997/98 Verführ mich
* 2003 Willkommen in meinem Leben
* 2006 Best of 30 - vom "WIR" zum ICH
Мои раздачи:
Рок Восточной Европы:
Trubadurzy - "Od piosenki do piosenki" -2005 ape+cue, lossless:
http://rutracker.org/forum/viewtopic.php?t=2175372
Kreis & Arnold Fritzsch - Коллекция из 5 альбомов:
http://rutracker.org/forum/viewtopic.php?t=1969650
Arnold Fritzsch - Warme - 1989/2007, FLAC (image+.cue), lossless - 1989, FLAC (image+.cue):
http://rutracker.org/forum/viewtopic.php?t=1962290
Srebrna krila - Zlatna Kolekcija - 2002, MP3 (tracks), 192 kbps:
http://rutracker.org/forum/viewtopic.php?t=1886720
Sarolta Zalatnay (Шаролта Залатнаи) - 1970-2002, MP3 (tracks), 320 kbps:
http://rutracker.org/forum/viewtopic.php?t=2140620
City - Коллекция из 10 альбомов 1977-2007, MP3 (tracks):
http://rutracker.org/forum/viewtopic.php?t=1931138
Советские исполнители:
Бенцианов Бен, Избранное, MP3 , 128-320кбс:
http://rutracker.org/forum/viewtopic.php?t=1717710
ВИА "Иверия" - Аргонавты (фрагменты мюзикла) - 1985, MP3 (tracks), 320 kbps
http://rutracker.org/forum/viewtopic.php?t=2175123
Э. Артемьев, Ю. Богданов, В.Мартынов - Метаморфозы- 1980, МР3, 320kb - 1980, MP3 (tracks)
http://rutracker.org/forum/viewtopic.php?t=2081289
Правила, инструкции, FAQ!!!
Торрент  Добавлен [26 мар 2019, 19:50] Скачать торрент Магнет ссылка
Скачать торрент
[ Размер 37.01 КБ / Просмотров 7 ]

Статус
Проверен 
 
Размер  461.9 МБ
Приватный: Нет (DHT включён)
.torrent скачан  1
 


     Отправить личное сообщение
   
Страница 1 из 1
Показать сообщения за:  Поле сортировки  
Начать новую тему Ответить на тему


Сейчас этот форум просматривают: нет зарегистрированных пользователей и гости: 0


Вы не можете начинать темы
Вы не можете отвечать на сообщения
Вы не можете редактировать свои сообщения
Вы не можете удалять свои сообщения
Вы не можете добавлять вложения

Перейти:  
cron