Начать новую тему Ответить на тему
Статистика раздачи
Размер: 305.34 МБ | Добавлен: 26 мар 2019, 18:38 | Скачали: 0
Сидеров: 0  [0 байт/сек]    Личеров: 0  [0 байт/сек]
Пред. тема | След. тема 

Автор
Сообщение

СообщениеДобавлено: 26 мар 2019, 18:38 

Ответить с цитатой 

Bobby Darin - Splish Splash Rock 'n' Roll (The Best Of, Vol.1)
Жанр: Pop/Rock Early Pop/Rock
Год выпуска диска: 1991
Производитель диска: U.S.A. (Atco), Россия (ArsNova)
Аудио кодек: FLAC
Тип рипа: image+.cue
Битрейт аудио: lossless
Продолжительность: 51'54"
Источник рипа: собственный диск
Трэклист:
1. Splish Splash 2:10
2. Mighty Mighty Man 1:46
3. Early In The Morning 2:16
4. Somebody To Love 2:16
5. Queen Of The Hop 2:12
6. She's Tanfastic 2:16
7. Moment Of Love 2:15
8. Dream Lover 2:33
9. I'll Be There 2:10
10. Beachcomber 2:15
11. Nature Boy 2:35
12. Similau 2:02
13. You Must Have Been A Beautiful Baby 2:06
14. Baby Face 2:07
15. Irresistible You 2:32
16. What'd I Say 4:05
17. Multiplication 2:17
18. Things 2:35
19. Lovin' You 2:13
20. If I Were A Carpenter 2:22
21. Simple Song Of Freedom 4:40
Exact Audio Copy V0.99 prebeta 4 from 23. January 2008
EAC extraction logfile from 5. April 2010, 18:43
Bobby Darin / The Best Of (Vol.1)
Used drive : Optiarc DVD RW AD-5200S Adapter: 2 ID: 0
Read mode : Secure
Utilize accurate stream : Yes
Defeat audio cache : Yes
Make use of C2 pointers : No
Read offset correction : 48
Overread into Lead-In and Lead-Out : No
Fill up missing offset samples with silence : Yes
Delete leading and trailing silent blocks : No
Null samples used in CRC calculations : Yes
Used interface : Native Win32 interface for Win NT & 2000
Used output format : Internal WAV Routines
Sample format : 44.100 Hz; 16 Bit; Stereo
TOC of the extracted CD
Track | Start | Length | Start sector | End sector
---------------------------------------------------------
1 | 0:00.32 | 2:10.38 | 32 | 9819
2 | 2:10.70 | 1:46.12 | 9820 | 17781
3 | 3:57.07 | 2:16.10 | 17782 | 27991
4 | 6:13.17 | 2:16.68 | 27992 | 38259
5 | 8:30.10 | 2:12.15 | 38260 | 48174
6 | 10:42.25 | 2:16.55 | 48175 | 58429
7 | 12:59.05 | 2:15.02 | 58430 | 68556
8 | 15:14.07 | 2:33.13 | 68557 | 80044
9 | 17:47.20 | 2:10.32 | 80045 | 89826
10 | 19:57.52 | 2:15.53 | 89827 | 100004
11 | 22:13.30 | 2:35.37 | 100005 | 111666
12 | 24:48.67 | 2:02.73 | 111667 | 120889
13 | 26:51.65 | 2:06.17 | 120890 | 130356
14 | 28:58.07 | 2:07.65 | 130357 | 139946
15 | 31:05.72 | 2:32.60 | 139947 | 151406
16 | 33:38.57 | 4:05.05 | 151407 | 169786
17 | 37:43.62 | 2:17.53 | 169787 | 180114
18 | 40:01.40 | 2:35.57 | 180115 | 191796
19 | 42:37.22 | 2:13.60 | 191797 | 201831
20 | 44:51.07 | 2:22.50 | 201832 | 212531
21 | 47:13.57 | 4:40.60 | 212532 | 233591
Range status and errors
Selected range
Filename F:\Torrents\Bobby Darin\Bobby Darin - The Best Of (Vol.1).wav
Peak level 100.0 %
Range quality 100.0 %
Copy CRC E9637C69
Copy OK
No errors occurred
End of status report
Доп. информация: Как-то в приватной беседе с друзьями Бобби признался, почему он стал исполнять рок-н-ролл, хотя изначально мечтал занять место рядом с такими поп-певцами с итальянскими корнями, как Фрэнк Синатра, Дин Мартин, Перри Комо и Тони Беннетт. Он хорошо сознавал, что в момент максимальной популярности рок-н-ролла и снижении интереса к мэйнстриму это был единственно правильный путь к завоеванию славы. И он это сделал. Не обладая особо выдающимся голосом, он, тем не менее, вмиг стал популярен благодаря абсолютному музыкальному слуху и целой цепочке нестандартных и ярких хитов. Ну а потом стал неторопливо, но настойчиво реализовать свою мечту.
Правила, инструкции, FAQ!!!
Торрент  Добавлен [26 мар 2019, 18:38] Скачать торрент Магнет ссылка
Скачать торрент
[ Размер 12.81 КБ / Просмотров 1 ]

Статус
Проверен 
 
Размер  305.34 МБ
Приватный: Нет (DHT включён)
.torrent скачан  0
 


     Отправить личное сообщение
   
Страница 1 из 1
Показать сообщения за:  Поле сортировки  
Начать новую тему Ответить на тему


Сейчас этот форум просматривают: нет зарегистрированных пользователей и гости: 0


Вы не можете начинать темы
Вы не можете отвечать на сообщения
Вы не можете редактировать свои сообщения
Вы не можете удалять свои сообщения
Вы не можете добавлять вложения

Перейти:  
cron