Начать новую тему Ответить на тему
Статистика раздачи
Размер: 319.63 МБ | Добавлен: 26 мар 2019, 20:59 | Скачали: 0
Сидеров: 1  [0 байт/сек]    Личеров: 0  [0 байт/сек]
Пред. тема | След. тема 

Автор
Сообщение

СообщениеДобавлено: 26 мар 2019, 20:59 

Ответить с цитатой 

Eagle Eye Cherry / Living In The Present Future (France)
Жанр: Pop Rock
Страна-производитель диска: France
Год издания диска: 2000
Издатель (лейбл): Polydor
Страна: Sweden
Аудио кодек: FLAC (*.flac)
Тип рипа: image+.cue
Битрейт аудио: lossless
Продолжительность: 45:35
Источник (релизер): Alexpir
Наличие сканов в содержимом раздачи: да
Треклист:

01.Been Here Once Before
02.Are You Still Having Fun?
03.One Good Reason
04.Promises Mode
05.Burning Up
06.Together
07.Long Way Around (Featuring Neneh Cherry)
08.Lonely Days (Miles Away)
09.First To Fall
10.Miss Fortune
11.She Didn't Belive
12.Shades Of Gray
Код:
Exact Audio Copy V0.99 prebeta 5 from 4. May 2009
Отчёт EAC об извлечении, выполненном 17. октября 2010, 11:34
Eagle - Eye Cherry / Living In The Present Future
Дисковод: Optiarc DVD RW AD-7585H   Adapter: 0  ID: 1
Режим чтения                 : Достоверность
Использование точного потока : Да
Отключение кэша аудио        : Да
Использование указателей C2  : Нет
Коррекция смещения при чтении                     : 6
Способность читать области Lead-in и Lead-out     : Нет
Заполнение пропущенных сэмплов тишиной            : Да
Удаление блоков с тишиной в начале и конце        : Нет
При вычислениях CRC использовались нулевые сэмплы : Да
Интерфейс                                         : Встроенный Win32-интерфейс для Win NT/2000
Выходной формат : Внутренние WAV-операции
Формат сэмплов  : 44.100 Гц; 16 бит; стерео
TOC извлечённого CD
     Трек |   Старт  | Длительность | Начальный сектор | Конечный сектор
    ---------------------------------------------------------------------
       1  |  0:00.00 |    3:31.54   |           0      |      15878
       2  |  3:31.54 |    3:09.21   |       15879      |      30074
       3  |  6:41.00 |    3:27.12   |       30075      |      45611
       4  | 10:08.12 |    3:37.55   |       45612      |      61941
       5  | 13:45.67 |    4:14.72   |       61942      |      81063
       6  | 18:00.64 |    5:17.16   |       81064      |     104854
       7  | 23:18.05 |    3:28.67   |      104855      |     120521
       8  | 26:46.72 |    3:58.63   |      120522      |     138434
       9  | 30:45.60 |    3:57.12   |      138435      |     156221
      10  | 34:42.72 |    3:47.23   |      156222      |     173269
      11  | 38:30.20 |    3:41.32   |      173270      |     189876
      12  | 42:11.52 |    3:24.05   |      189877      |     205181
Характеристики диапазона извлечения и сообщения об ошибках
Выбранный диапазон
     Имя файла C:\Музыка\05.2000 Eagle - Eye Cherry - Living In The Present\Eagle - Eye Cherry - Living In The Present Future.wav
     Пиковый уровень 99.8 %
     Качество диапазона 100.0 %
     CRC теста A622BBF8
     CRC копии A622BBF8
     Копирование... OK
Ошибок не произошло
AccurateRip: сводка
Трек  1  точное извлечение (доверие 8)  [064C60DA]
Трек  2  точное извлечение (доверие 10)  [56BA9FD3]
Трек  3  точное извлечение (доверие 7)  [2073757D]
Трек  4  точное извлечение (доверие 8)  [E653F781]
Трек  5  точное извлечение (доверие 7)  [6F4BE5A7]
Трек  6  точное извлечение (доверие 7)  [755FABB9]
Трек  7  точное извлечение (доверие 8)  [056E0629]
Трек  8  точное извлечение (доверие 7)  [1D1969AF]
Трек  9  точное извлечение (доверие 7)  [966CD9AD]
Трек 10  точное извлечение (доверие 8)  [82B22B98]
Трек 11  точное извлечение (доверие 7)  [5A602395]
Трек 12  точное извлечение (доверие 8)  [C1032C82]
Все треки извлечены точно
Конец отчёта
Правила, инструкции, FAQ!!!
Торрент  Добавлен [26 мар 2019, 20:59] Скачать торрент Магнет ссылка
Скачать торрент
[ Размер 13.65 КБ / Просмотров 7 ]

Статус
Проверен 
 
Размер  319.63 МБ
Приватный: Нет (DHT включён)
.torrent скачан  0
 


     Отправить личное сообщение
   
Страница 1 из 1
Показать сообщения за:  Поле сортировки  
Начать новую тему Ответить на тему


Сейчас этот форум просматривают: нет зарегистрированных пользователей и гости: 0


Вы не можете начинать темы
Вы не можете отвечать на сообщения
Вы не можете редактировать свои сообщения
Вы не можете удалять свои сообщения
Вы не можете добавлять вложения

Перейти:  
cron