Начать новую тему Ответить на тему
Статистика раздачи
Размер: 295.1 МБ | Добавлен: 26 мар 2019, 19:25 | Скачали: 0
Сидеров: 0  [0 байт/сек]    Личеров: 0  [0 байт/сек]
Пред. тема | След. тема 

Автор
Сообщение

СообщениеДобавлено: 26 мар 2019, 19:25 

Ответить с цитатой 

Eagle Eye Cherry - Living In The Present Future

Жанр: Pop Rock
Год выпуска диска: 2000
Производитель диска: Россия
Аудио кодек: APE
Тип рипа: image+.cue
Битрейт аудио: lossless
Продолжительность: 45:36:31
Трэклист:
1. Been Here Once Before
2. Are You Still Having Fun?
3. One Good Reason
4. Promises Mode
5. Burning Up
6. Together
7. Long Way Around (featuring Neneh Cherry)
8. Lonely Days (Miles Away)
9. First To Fall
10. Miss Fortune
11. She Didn't Belive
12. Shades Of Gray
Отчет EAC об извлечении из 3. Декабрь 2009, 23:22 для CD
Unknown Artist / Unknown Title
Дисковод: Optiarc DVD RW AD-5200A Adapter: 0 ID: 3
Режим чтения: Точный: C2 - нет, точный поток - да, отключение кэша - да
Коррекция смещения при чтении: 48
Экстрачтение Lead-in и Lead-out : Нет
Выходной формат: C:\Program Files\Burrrn\flac.exe (Пользовательский кодер)
128 kBit/s
Другие параметры:
Заполнять пропущенные сэмплы тишиной : Да
Удалить блоки с тишиной в начале и конце : Нет
Установленный внешний ASPI-интерфейс
Статус диапазона и ошибки
Выбранный диапазон
Имя файла F:\Мои раздачи\Eagle Eye Cherry\CDImage.wav
Пиковый уровень 99.8 %
Качество диапазона 100.0 %
CRC AF201564
Копирование... OK
Ошибок не произошло
Конец отчета
PERFORMER "Eagle Eye Cherry"
TITLE "Living In The Present Future"
FILE "CDImage.ape" WAVE
TRACK 01 AUDIO
TITLE "Been Here Once Before"
PERFORMER "Eagle Eye Cherry"
INDEX 01 00:00:00
TRACK 02 AUDIO
TITLE "Are You Still Having Fun?"
PERFORMER "Eagle Eye Cherry"
INDEX 01 03:32:45
TRACK 03 AUDIO
TITLE "One Good Reason"
PERFORMER "Eagle Eye Cherry"
INDEX 01 06:41:62
TRACK 04 AUDIO
TITLE "Promises Mode"
PERFORMER "Eagle Eye Cherry"
INDEX 01 10:09:00
TRACK 05 AUDIO
TITLE "Burning Up"
PERFORMER "Eagle Eye Cherry"
INDEX 01 13:46:47
TRACK 06 AUDIO
TITLE "Together"
PERFORMER "Eagle Eye Cherry"
INDEX 01 18:01:47
TRACK 07 AUDIO
TITLE "Long Way Around (featuring Neneh Cherry)"
PERFORMER "Eagle Eye Cherry"
INDEX 01 23:18:60
TRACK 08 AUDIO
TITLE "Lonely Days (Miles Away)"
PERFORMER "Eagle Eye Cherry"
INDEX 01 26:48:25
TRACK 09 AUDIO
TITLE "First To Fall"
PERFORMER "Eagle Eye Cherry"
INDEX 01 30:46:25
TRACK 10 AUDIO
TITLE "Miss Fortune"
PERFORMER "Eagle Eye Cherry"
INDEX 01 34:43:65
TRACK 11 AUDIO
TITLE "She Didn't Belive"
PERFORMER "Eagle Eye Cherry"
INDEX 01 38:31:00
TRACK 12 AUDIO
TITLE "Shades Of Gray"
PERFORMER "Eagle Eye Cherry"
INDEX 01 42:12:50
Дополнительная информация: В раздаче присутствуют сканы найденные мною в интернете. Альтернативные сканы (те, что на странице) мои.
Правила, инструкции, FAQ!!!
Торрент  Добавлен [26 мар 2019, 19:25] Скачать торрент Магнет ссылка
Скачать торрент
[ Размер 12.42 КБ / Просмотров 3 ]

Статус
Проверен 
 
Размер  295.1 МБ
Приватный: Нет (DHT включён)
.torrent скачан  0
 


     Отправить личное сообщение
   
Страница 1 из 1
Показать сообщения за:  Поле сортировки  
Начать новую тему Ответить на тему


Сейчас этот форум просматривают: нет зарегистрированных пользователей и гости: 0


Вы не можете начинать темы
Вы не можете отвечать на сообщения
Вы не можете редактировать свои сообщения
Вы не можете удалять свои сообщения
Вы не можете добавлять вложения

Перейти:  
cron