Начать новую тему Ответить на тему
Статистика раздачи
Размер: 285.55 МБ | Добавлен: 26 мар 2019, 21:06 | Скачали: 0
Сидеров: 1  [0 байт/сек]    Личеров: 0  [0 байт/сек]
Пред. тема | След. тема 

Автор
Сообщение

СообщениеДобавлено: 26 мар 2019, 21:06 

Ответить с цитатой 

Duran Duran - Duran Duran (Remastered 7243-5-8481020)
Жанр: Pop,Rock
Год выпуска диска: 2003
Производитель диска: EU
Аудио кодек: FLAC
Тип рипа: image+.cue
Битрейт аудио: lossless
Продолжительность: 40 min 08 sek
Трэклист:
1. Girls On Film
2. Planet Earth
3. Anyone Out There
4. To The Shore
5. Careless Memories
6. Night Boat
7. Sound Of Thunder
8. Friends Of Mine
9. Tel Aviv
Доп. информация: http://www.discogs.com/Duran-Duran-Duran-Duran/release/1268094
Диск из моей коллекции. Сканы прилагаются.
Exact Audio Copy V0.99 prebeta 5 from 4. May 2009
Отчёт EAC об извлечении, выполненном 21. ноября 2009, 21:57
Duran Duran / Duran Duran
Дисковод: TSSTcorpCD/DVDW SH-S182M Adapter: 0 ID: 0
Режим чтения : Достоверность
Использование точного потока : Да
Отключение кэша аудио : Да
Использование указателей C2 : Нет
Коррекция смещения при чтении : 6
Способность читать области Lead-in и Lead-out : Нет
Заполнение пропущенных сэмплов тишиной : Да
Удаление блоков с тишиной в начале и конце : Нет
При вычислениях CRC использовались нулевые сэмплы : Да
Интерфейс : Встроенный Win32-интерфейс для Win NT/2000
Выходной формат : Пользовательский кодировщик
Выбранный битрейт : 768 kBit/s
Качество : Высокий
Добавление ID3-тэга : Нет
Утилита сжатия : C:\Program Files\Exact Audio Copy\FLAC\FLAC.EXE
Дополнительные параметры : -6 -V -T "ARTIST=%a" -T "TITLE=%t" -T "ALBUM=%g" -T "DATE=%y" -T "TRACKNUMBER=%n" -T "GENRE=%m" -T "COMMENT=%e" %s -o %d
TOC извлечённого CD
Трек | Старт | Длительность | Начальный сектор | Конечный сектор
---------------------------------------------------------------------
1 | 0:00.00 | 3:36.02 | 0 | 16201
2 | 3:36.02 | 4:03.05 | 16202 | 34431
3 | 7:39.07 | 4:05.58 | 34432 | 52864
4 | 11:44.65 | 3:50.12 | 52865 | 70126
5 | 15:35.02 | 3:55.10 | 70127 | 87761
6 | 19:30.12 | 5:25.60 | 87762 | 112196
7 | 24:55.72 | 4:07.63 | 112197 | 130784
8 | 29:03.60 | 5:45.05 | 130785 | 156664
9 | 34:48.65 | 5:17.20 | 156665 | 180459
10 | 42:38.10 | 31:19.65 | 191860 | 332849
Характеристики диапазона извлечения и сообщения об ошибках
Выбранный диапазон
Имя файла I:\Code\2003 Duran Duran - Duran Duran\Duran Duran - Duran Duran.wav
Пиковый уровень 98.9 %
Качество диапазона 99.9 %
CRC теста 6AD04043
CRC копии AAD09A2F
Копирование... OK
Ошибок не произошло
AccurateRip: сводка
Трек 1 нет в базе данных
Трек 2 нет в базе данных
Трек 3 нет в базе данных
Трек 4 нет в базе данных
Трек 5 нет в базе данных
Трек 6 нет в базе данных
Трек 7 нет в базе данных
Трек 8 нет в базе данных
Трек 9 нет в базе данных
Ни одного трека нет в базе AccurateRip
Конец отчёта
Правила, инструкции, FAQ!!!
Торрент  Добавлен [26 мар 2019, 21:06] Скачать торрент Магнет ссылка
Скачать торрент
[ Размер 12.06 КБ / Просмотров 5 ]

Статус
Проверен 
 
Размер  285.55 МБ
Приватный: Нет (DHT включён)
.torrent скачан  0
 


     Отправить личное сообщение
   
Страница 1 из 1
Показать сообщения за:  Поле сортировки  
Начать новую тему Ответить на тему


Сейчас этот форум просматривают: нет зарегистрированных пользователей и гости: 0


Вы не можете начинать темы
Вы не можете отвечать на сообщения
Вы не можете редактировать свои сообщения
Вы не можете удалять свои сообщения
Вы не можете добавлять вложения

Перейти:  
cron