Начать новую тему Ответить на тему
Статистика раздачи
Размер: 268.95 МБ | Добавлен: 26 мар 2019, 20:02 | Скачали: 0
Сидеров: 0  [0 байт/сек]    Личеров: 0  [0 байт/сек]
Пред. тема | След. тема 

Автор
Сообщение

СообщениеДобавлено: 26 мар 2019, 20:02 

Ответить с цитатой 

Demjén Ferenc - Még lázad a szív
(2018)

Жанр: Pop/Rock
Носитель: CD
Страна-производитель диска (релиза): Hungary
Год издания: 2018
Издатель (лейбл): RR CD
Номер по каталогу: 018
Страна исполнителя (группы): Hungary
Аудиокодек: FLAC (*.flac)
Тип рипа: tracks+.cue
Битрейт аудио: lossless
Продолжительность: 00:36:59
Источник (релизер): Naftamusic
Наличие сканов в содержимом раздачи: да
Корректность рипа: В оригинале не было применено сжатие при конвертировании во Флак (FLAC Level 0). Для приведения в соответствие правилам пережато во FLAC Level 5 с сохранением тэгов

01 - Engedd, hogy szóljon a rock and roll (00:03:47)
02 - Még lázad a szív (00:03:46)
03 - Szerelemangyal (00:03:32)
04 - Tiszta vagy te még (00:04:10)
05 - Beindul a rohanás (00:03:00)
06 - Lesz még szép (00:03:28)
07 - Az idő csak száll (00:04:23)
08 - Én mindig úgy vigyáznék rád (00:03:37)
09 - Döntsön az ágy (00:03:53)
10 - Így legyen (00:03:23)
Код:
Exact Audio Copy V1.3 from 2. September 2016
EAC extraction logfile from 12. December 2018, 21:58
Demjén Ferenc / Még lázad a szív
Used drive  : PLEXTOR PX-891SAF PLUS   Adapter: 1  ID: 0
Read mode               : Secure
Utilize accurate stream : Yes
Defeat audio cache      : Yes
Make use of C2 pointers : No
Read offset correction                      : 6
Overread into Lead-In and Lead-Out          : No
Fill up missing offset samples with silence : Yes
Delete leading and trailing silent blocks   : No
Null samples used in CRC calculations       : Yes
Used interface                              : Native Win32 interface for Win NT & 2000
Gap handling                                : Appended to previous track
Used output format              : User Defined Encoder
Selected bitrate                : 1024 kBit/s
Quality                         : High
Add ID3 tag                     : No
Command line compressor         : C:\Program Files (x86)\Exact Audio Copy\Flac\flac.exe
Additional command line options : -0 -V -T "ARTIST=%artist%" -T "TITLE=%title%" -T "ALBUM=%albumtitle%" -T "DATE=%year%" -T "TRACKNUMBER=%tracknr%" -T "TOTALTRACKS=%numtracks%" -T "GENRE=%genre%" -T "COMMENT=Naftamusic Release!" %source%
TOC of the extracted CD
     Track |   Start  |  Length  | Start sector | End sector
    ---------------------------------------------------------
        1  |  0:00.00 |  3:47.07 |         0    |    17031
        2  |  3:47.07 |  3:46.33 |     17032    |    34014
        3  |  7:33.40 |  3:31.74 |     34015    |    49913
        4  | 11:05.39 |  4:10.34 |     49914    |    68697
        5  | 15:15.73 |  2:59.56 |     68698    |    82178
        6  | 18:15.54 |  3:28.16 |     82179    |    97794
        7  | 21:43.70 |  4:22.41 |     97795    |   117485
        8  | 26:06.36 |  3:37.07 |    117486    |   133767
        9  | 29:43.43 |  3:52.46 |    133768    |   151213
       10  | 33:36.14 |  3:23.19 |    151214    |   166457
Track  1
     Filename E:\Nafta Releases\Demjén Ferenc - Még lázad a szív (2018)[FLAC] - Naftamusic\01 - Engedd, hogy szóljon a rock and roll.wav
     Pre-gap length  0:00:02.00
     Peak level 96.7 %
     Extraction speed 2.2 X
     Track quality 99.9 %
     Test CRC 8FCBA7A3
     Copy CRC 8FCBA7A3
     Track not present in AccurateRip database
     Copy OK
Track  2
     Filename E:\Nafta Releases\Demjén Ferenc - Még lázad a szív (2018)[FLAC] - Naftamusic\02 - Még lázad a szív.wav
     Pre-gap length  0:00:01.03
     Peak level 96.5 %
     Extraction speed 3.0 X
     Track quality 100.0 %
     Test CRC 9F08BD25
     Copy CRC 9F08BD25
     Track not present in AccurateRip database
     Copy OK
Track  3
     Filename E:\Nafta Releases\Demjén Ferenc - Még lázad a szív (2018)[FLAC] - Naftamusic\03 - Szerelemangyal.wav
     Pre-gap length  0:00:01.66
     Peak level 97.0 %
     Extraction speed 3.3 X
     Track quality 100.0 %
     Test CRC CC59CF89
     Copy CRC CC59CF89
     Track not present in AccurateRip database
     Copy OK
Track  4
     Filename E:\Nafta Releases\Demjén Ferenc - Még lázad a szív (2018)[FLAC] - Naftamusic\04 - Tiszta vagy te még.wav
     Pre-gap length  0:00:01.22
     Peak level 96.5 %
     Extraction speed 3.6 X
     Track quality 100.0 %
     Test CRC 97403B4E
     Copy CRC 97403B4E
     Track not present in AccurateRip database
     Copy OK
Track  5
     Filename E:\Nafta Releases\Demjén Ferenc - Még lázad a szív (2018)[FLAC] - Naftamusic\05 - Beindul a rohanás.wav
     Pre-gap length  0:00:01.65
     Peak level 96.5 %
     Extraction speed 3.6 X
     Track quality 100.0 %
     Test CRC 46061F73
     Copy CRC 46061F73
     Track not present in AccurateRip database
     Copy OK
Track  6
     Filename E:\Nafta Releases\Demjén Ferenc - Még lázad a szív (2018)[FLAC] - Naftamusic\06 - Lesz még szép.wav
     Pre-gap length  0:00:01.38
     Peak level 96.5 %
     Extraction speed 3.8 X
     Track quality 100.0 %
     Test CRC A8C6A743
     Copy CRC A8C6A743
     Track not present in AccurateRip database
     Copy OK
Track  7
     Filename E:\Nafta Releases\Demjén Ferenc - Még lázad a szív (2018)[FLAC] - Naftamusic\07 - Az idő csak száll.wav
     Pre-gap length  0:00:01.66
     Peak level 96.6 %
     Extraction speed 4.2 X
     Track quality 100.0 %
     Test CRC 15376A5E
     Copy CRC 15376A5E
     Track not present in AccurateRip database
     Copy OK
Track  8
     Filename E:\Nafta Releases\Demjén Ferenc - Még lázad a szív (2018)[FLAC] - Naftamusic\08 - Én mindig úgy vigyáznék rád.wav
     Pre-gap length  0:00:01.61
     Peak level 96.5 %
     Extraction speed 3.3 X
     Track quality 99.9 %
     Test CRC AC5BD226
     Copy CRC AC5BD226
     Track not present in AccurateRip database
     Copy OK
Track  9
     Filename E:\Nafta Releases\Demjén Ferenc - Még lázad a szív (2018)[FLAC] - Naftamusic\09 - Döntsön az ágy.wav
     Pre-gap length  0:00:01.63
     Peak level 96.7 %
     Extraction speed 4.5 X
     Track quality 100.0 %
     Test CRC 40569843
     Copy CRC 40569843
     Track not present in AccurateRip database
     Copy OK
Track 10
     Filename E:\Nafta Releases\Demjén Ferenc - Még lázad a szív (2018)[FLAC] - Naftamusic\10 - Így legyen.wav
     Pre-gap length  0:00:01.68
     Peak level 96.5 %
     Extraction speed 4.6 X
     Track quality 100.0 %
     Test CRC C1AD2160
     Copy CRC C1AD2160
     Track not present in AccurateRip database
     Copy OK
None of the tracks are present in the AccurateRip database
No errors occurred
End of status report
==== Log checksum 960E1D8EEBEEA19582FEFDCB91DCB92D02BEC60F403E47F302E9694E81524773 ====
Код:
REM GENRE Pop-Rock
REM DATE 2018
REM DISCID 8F08AB0A
REM COMMENT "ExactAudioCopy v1.3"
PERFORMER "Demjén Ferenc"
TITLE "Még lázad a szív"
REM COMPOSER ""
FILE "01 - Engedd, hogy szóljon a rock and roll.wav" WAVE
  TRACK 01 AUDIO
    TITLE "Engedd, hogy szóljon a rock and roll"
    PERFORMER "Demjén Ferenc"
    REM COMPOSER ""
    INDEX 01 00:00:00
  TRACK 02 AUDIO
    TITLE "Még lázad a szív"
    PERFORMER "Demjén Ferenc"
    REM COMPOSER ""
    INDEX 00 03:46:04
FILE "02 - Még lázad a szív.wav" WAVE
    INDEX 01 00:00:00
  TRACK 03 AUDIO
    TITLE "Szerelemangyal"
    PERFORMER "Demjén Ferenc"
    REM COMPOSER ""
    INDEX 00 03:44:42
FILE "03 - Szerelemangyal.wav" WAVE
    INDEX 01 00:00:00
  TRACK 04 AUDIO
    TITLE "Tiszta vagy te még"
    PERFORMER "Demjén Ferenc"
    REM COMPOSER ""
    INDEX 00 03:30:52
FILE "04 - Tiszta vagy te még.wav" WAVE
    INDEX 01 00:00:00
  TRACK 05 AUDIO
    TITLE "Beindul a rohanás"
    PERFORMER "Demjén Ferenc"
    REM COMPOSER ""
    INDEX 00 04:08:44
FILE "05 - Beindul a rohanás.wav" WAVE
    INDEX 01 00:00:00
  TRACK 06 AUDIO
    TITLE "Lesz még szép"
    PERFORMER "Demjén Ferenc"
    REM COMPOSER ""
    INDEX 00 02:58:18
FILE "06 - Lesz még szép.wav" WAVE
    INDEX 01 00:00:00
  TRACK 07 AUDIO
    TITLE "Az idő csak száll"
    PERFORMER "Demjén Ferenc"
    REM COMPOSER ""
    INDEX 00 03:26:25
FILE "07 - Az idő csak száll.wav" WAVE
    INDEX 01 00:00:00
  TRACK 08 AUDIO
    TITLE "Én mindig úgy vigyáznék rád"
    PERFORMER "Demjén Ferenc"
    REM COMPOSER ""
    INDEX 00 04:20:55
FILE "08 - Én mindig úgy vigyáznék rád.wav" WAVE
    INDEX 01 00:00:00
  TRACK 09 AUDIO
    TITLE "Döntsön az ágy"
    PERFORMER "Demjén Ferenc"
    REM COMPOSER ""
    INDEX 00 03:35:19
FILE "09 - Döntsön az ágy.wav" WAVE
    INDEX 01 00:00:00
  TRACK 10 AUDIO
    TITLE "Így legyen"
    PERFORMER "Demjén Ferenc"
    REM COMPOSER ""
    INDEX 00 03:50:53
FILE "10 - Így legyen.wav" WAVE
    INDEX 01 00:00:00
Код:
[url=https://fastpic.ru/view/108/2018/1217/d363d94c582c4af8ed5dcee36d5dcda8.png.html][img]https://i108.fastpic.ru/thumb/2018/1217/a8/d363d94c582c4af8ed5dcee36d5dcda8.jpeg[/img][/url]
Код:
[img]https://i106.fastpic.ru/big/2018/1217/68/10046a740e3aa40021b7ab7ba524ee68.png[/img]
foobar2000 1.2.2 / Dynamic Range Meter 1.1.1
log date: 2018-12-12 22:08:18
--------------------------------------------------------------------------------
Analyzed: Demjén Ferenc / Még lázad a szív
--------------------------------------------------------------------------------
DR         Peak         RMS     Duration Track
--------------------------------------------------------------------------------
DR5       -0.29 dB    -6.53 dB      3:47 01-Engedd, hogy szóljon a rock and roll
DR5       -0.31 dB    -6.29 dB      3:46 02-Még lázad a szív
DR5       -0.26 dB    -6.34 dB      3:32 03-Szerelemangyal
DR5       -0.31 dB    -6.68 dB      4:10 04-Tiszta vagy te még
DR5       -0.31 dB    -6.34 dB      3:00 05-Beindul a rohanás
DR5       -0.30 dB    -6.60 dB      3:28 06-Lesz még szép
DR5       -0.30 dB    -6.58 dB      4:23 07-Az idő csak száll
DR5       -0.31 dB    -6.69 dB      3:37 08-Én mindig úgy vigyáznék rád
DR5       -0.29 dB    -6.82 dB      3:53 09-Döntsön az ágy
DR5       -0.31 dB    -7.92 dB      3:23 10-Így legyen
--------------------------------------------------------------------------------
Number of tracks:  10
Official DR value: DR5
Samplerate:        44100 Hz
Channels:          2
Bits per sample:   16
Bitrate:           928 kbps
Codec:             FLAC
================================================================================
Közreműködtek:
Demjén Ferenc - Ének
Bársony Attila - Vokál
Menyhárt János - Gitárok. Vokál
Závodi Gábor - Billentyűs hangszerek, Vokál
Demjén Ferenc 2018-as albuma.
A felvételek a Z-Mex Stúdióban készültek 2018-ban
Hangmérnök: Závodi Gábor
Zenei producer, hangszerelés: Závodi Gábor
Правила, инструкции, FAQ!!!
Торрент  Добавлен [26 мар 2019, 20:02] Скачать торрент Магнет ссылка
Скачать торрент
[ Размер 12.22 КБ / Просмотров 4 ]

Статус
Проверен 
 
Размер  268.95 МБ
Приватный: Нет (DHT включён)
.torrent скачан  0
 


     Отправить личное сообщение
   
Страница 1 из 1
Показать сообщения за:  Поле сортировки  
Начать новую тему Ответить на тему


Сейчас этот форум просматривают: нет зарегистрированных пользователей и гости: 0


Вы не можете начинать темы
Вы не можете отвечать на сообщения
Вы не можете редактировать свои сообщения
Вы не можете удалять свои сообщения
Вы не можете добавлять вложения

Перейти:  
cron