Начать новую тему Ответить на тему
Статистика раздачи
Размер: 1.58 ГБ | Добавлен: 26 мар 2019, 20:38 | Скачали: 0
Сидеров: 0  [0 байт/сек]    Личеров: 0  [0 байт/сек]
Пред. тема | След. тема 

Автор
Сообщение

СообщениеДобавлено: 26 мар 2019, 20:38 

Ответить с цитатой 

Deep Blue Something - 4 альбома, 1 сингл (1993-2001)
Жанр: Pop-Rock
Год выпуска диска: 1993-2001
Производитель диска:
Аудио кодек: FLAC
Тип рипа: tracks+.cue
Битрейт аудио: lossless
Продолжительность: 3:45:42
#777Жанр: Pop-Rock
Год выпуска диска: 1993
Производитель диска: Crystal Clear Sound (США)
Аудио кодек: FLAC
Тип рипа: tracks+.cue
Битрейт аудио: lossless
Продолжительность: 55 мин
Трэклист:
01. One For Reality {4:53}
02. Raise Your Hands {5:21}
03. 7 A.M. {4:17}
04. You {3:35}
05. She'll Go To Pieces {5:24}
06. Someday {4:43}
07. No More {2:55}
08. Loneliest Man {4:43}
09. What A Single Word Can Do {4:05}
10. Breakfast At Tiffany's {5:18}
11. (Hidden Track) {9:45}
Код:
Exact Audio Copy V0.99 prebeta 3 from 28. July 2007
EAC extraction logfile from 2. April 2010, 18:23
Deep Blue Something / 1993 - 11th Song
Used drive  : PLEXTOR DVDR   PX-760A   Adapter: 2  ID: 0
Read mode               : Secure
Utilize accurate stream : Yes
Defeat audio cache      : Yes
Make use of C2 pointers : No
Read offset correction                      : 30
Overread into Lead-In and Lead-Out          : No
Fill up missing offset samples with silence : Yes
Delete leading and trailing silent blocks   : No
Null samples used in CRC calculations       : Yes
Used interface                              : Native Win32 interface for Win NT & 2000
Gap handling                                : Appended to previous track
Used output format              : User Defined Encoder
Selected bitrate                : 1024 kBit/s
Quality                         : High
Add ID3 tag                     : No
Command line compressor         : C:\Program Files (x86)\Exact Audio Copy\Flac\flac.exe
Additional command line options : -V -8 -T "artist=%a" -T "title=%t" -T "album=%g" -T "date=%y" -T "tracknumber=%n" -T "genre=%m" %s
TOC of the extracted CD
     Track |   Start  |  Length  | Start sector | End sector
    ---------------------------------------------------------
        1  |  0:00.00 |  4:53.10 |         0    |    21984
        2  |  4:53.10 |  5:20.60 |     21985    |    46044
        3  | 10:13.70 |  4:16.70 |     46045    |    65314
        4  | 14:30.65 |  3:35.20 |     65315    |    81459
        5  | 18:06.10 |  5:24.27 |     81460    |   105786
        6  | 23:30.37 |  4:43.00 |    105787    |   127011
        7  | 28:13.37 |  2:55.28 |    127012    |   140164
        8  | 31:08.65 |  4:43.02 |    140165    |   161391
        9  | 35:51.67 |  4:05.13 |    161392    |   179779
       10  | 39:57.05 |  5:18.30 |    179780    |   203659
       11  | 45:15.35 |  9:44.60 |    203660    |   247519
Track  1
     Filename E:\MUSIK\00. EAC Rips\Deep Blue Something - 1993 - 1993 - 11th Song\01 - One For Reality.wav
     Pre-gap length  0:00:02.00
     Peak level 92.3 %
     Track quality 100.0 %
     Test CRC 7B74C339
     Copy CRC 7B74C339
     Accurately ripped (confidence 3)  [D2F6994D]
     Copy OK
Track  2
     Filename E:\MUSIK\00. EAC Rips\Deep Blue Something - 1993 - 1993 - 11th Song\02 - Raise Your Hands.wav
     Pre-gap length  0:00:03.30
     Peak level 100.0 %
     Track quality 100.0 %
     Test CRC ABC70EEE
     Copy CRC ABC70EEE
     Accurately ripped (confidence 3)  [ACD87F80]
     Copy OK
Track  3
     Filename E:\MUSIK\00. EAC Rips\Deep Blue Something - 1993 - 1993 - 11th Song\03 - 7 A.M..wav
     Pre-gap length  0:00:03.00
     Peak level 97.1 %
     Track quality 100.0 %
     Test CRC EBA76737
     Copy CRC EBA76737
     Accurately ripped (confidence 3)  [BADBDEB0]
     Copy OK
Track  4
     Filename E:\MUSIK\00. EAC Rips\Deep Blue Something - 1993 - 1993 - 11th Song\04 - You.wav
     Pre-gap length  0:00:04.06
     Peak level 79.5 %
     Track quality 100.0 %
     Test CRC CD5BC92B
     Copy CRC CD5BC92B
     Accurately ripped (confidence 3)  [162A7931]
     Copy OK
Track  5
     Filename E:\MUSIK\00. EAC Rips\Deep Blue Something - 1993 - 1993 - 11th Song\05 - She'll Go To Pieces.wav
     Pre-gap length  0:00:02.93
     Peak level 98.9 %
     Track quality 100.0 %
     Test CRC 5957D6E5
     Copy CRC 5957D6E5
     Accurately ripped (confidence 3)  [6FEA6228]
     Copy OK
Track  6
     Filename E:\MUSIK\00. EAC Rips\Deep Blue Something - 1993 - 1993 - 11th Song\06 - Someday.wav
     Pre-gap length  0:00:02.00
     Peak level 100.0 %
     Track quality 100.0 %
     Test CRC 7849B497
     Copy CRC 7849B497
     Accurately ripped (confidence 3)  [7C5790D9]
     Copy OK
Track  7
     Filename E:\MUSIK\00. EAC Rips\Deep Blue Something - 1993 - 1993 - 11th Song\07 - No More.wav
     Pre-gap length  0:00:01.40
     Peak level 93.7 %
     Track quality 100.0 %
     Test CRC 9CC732F5
     Copy CRC 9CC732F5
     Accurately ripped (confidence 3)  [32DCAB10]
     Copy OK
Track  8
     Filename E:\MUSIK\00. EAC Rips\Deep Blue Something - 1993 - 1993 - 11th Song\08 - Loneliest Man.wav
     Pre-gap length  0:00:03.44
     Peak level 85.5 %
     Track quality 100.0 %
     Test CRC 975D7967
     Copy CRC 975D7967
     Accurately ripped (confidence 3)  [2E290C16]
     Copy OK
Track  9
     Filename E:\MUSIK\00. EAC Rips\Deep Blue Something - 1993 - 1993 - 11th Song\09 - What A Single Word Can Do.wav
     Pre-gap length  0:00:02.00
     Peak level 70.7 %
     Track quality 100.0 %
     Test CRC FDB5C432
     Copy CRC FDB5C432
     Accurately ripped (confidence 3)  [C0C92FBB]
     Copy OK
Track 10
     Filename E:\MUSIK\00. EAC Rips\Deep Blue Something - 1993 - 1993 - 11th Song\10 - Breakfast At Tiffany's.wav
     Pre-gap length  0:00:05.00
     Peak level 70.6 %
     Track quality 100.0 %
     Test CRC 4CFF64B9
     Copy CRC 4CFF64B9
     Accurately ripped (confidence 3)  [C902FF98]
     Copy OK
Track 11
     Filename E:\MUSIK\00. EAC Rips\Deep Blue Something - 1993 - 1993 - 11th Song\11 - (Hidden Track).wav
     Pre-gap length  0:00:47.80
     Peak level 77.4 %
     Track quality 99.9 %
     Test CRC 44F9CF78
     Copy CRC 44F9CF78
     Accurately ripped (confidence 2)  [AE52E830]
     Copy OK
All tracks accurately ripped
No errors occurred
End of status report
AUDIOCHECKER v2.0 beta (build 457) - by Dester - opdester@freemail.hu
~~~~~~~~~~~~~~~~~~~~~~~~~~~~~~~~~~
-=== DO NOT EDIT THIS FILE! ===-
Path: ...\1993 - 11th Song
01 -=- 01 - One For Reality.flac -=- CDDA (100%)
02 -=- 02 - Raise Your Hands.flac -=- CDDA (100%)
03 -=- 03 - 7 A.M..flac -=- CDDA (100%)
04 -=- 04 - You.flac -=- CDDA (100%)
05 -=- 05 - She'll Go To Pieces.flac -=- CDDA (100%)
06 -=- 06 - Someday.flac -=- CDDA (99%)
07 -=- 07 - No More.flac -=- CDDA (100%)
08 -=- 08 - Loneliest Man.flac -=- CDDA (99%)
09 -=- 09 - What A Single Word Can Do.flac -=- CDDA (99%)
10 -=- 10 - Breakfast At Tiffany's.flac -=- CDDA (100%)
11 -=- 11 - (Hidden Track).flac -=- CDDA (100%)
Summary 99,73% CDDA
Код:
REM GENRE Rock
REM DATE 1993
REM DISCID A00CE40B
REM COMMENT "ExactAudioCopy v0.99pb3"
FILE "01 - One For Reality.wav" WAVE
  TRACK 01 AUDIO
    INDEX 01 00:00:00
  TRACK 02 AUDIO
    INDEX 00 04:49:62
FILE "02 - Raise Your Hands.wav" WAVE
    INDEX 01 00:00:00
  TRACK 03 AUDIO
    INDEX 00 05:17:60
FILE "03 - 7 A.M..wav" WAVE
    INDEX 01 00:00:00
  TRACK 04 AUDIO
    INDEX 00 04:12:65
FILE "04 - You.wav" WAVE
    INDEX 01 00:00:00
  TRACK 05 AUDIO
    INDEX 00 03:32:25
FILE "05 - She'll Go To Pieces.wav" WAVE
    INDEX 01 00:00:00
  TRACK 06 AUDIO
    INDEX 00 05:22:27
FILE "06 - Someday.wav" WAVE
    INDEX 01 00:00:00
  TRACK 07 AUDIO
    INDEX 00 04:41:45
FILE "07 - No More.wav" WAVE
    INDEX 01 00:00:00
  TRACK 08 AUDIO
    INDEX 00 02:51:70
FILE "08 - Loneliest Man.wav" WAVE
    INDEX 01 00:00:00
  TRACK 09 AUDIO
    INDEX 00 04:41:02
FILE "09 - What A Single Word Can Do.wav" WAVE
    INDEX 01 00:00:00
  TRACK 10 AUDIO
    INDEX 00 04:00:13
FILE "10 - Breakfast At Tiffany's.wav" WAVE
    INDEX 01 00:00:00
  TRACK 11 AUDIO
    INDEX 00 04:30:45
FILE "11 - (Hidden Track).wav" WAVE
    INDEX 01 00:00:00
Доп. информация: Источник What.CD (релизёр magicmerlin) | Amazon (ссылка на издание того же содержания, но более позднего года выпуска)
#777Жанр: Pop-Rock
Год выпуска диска: 1995
Производитель диска: Interscope Records (США)
Аудио кодек: FLAC
Тип рипа: tracks+.cue
Битрейт аудио: lossless
Продолжительность: 42 мин 20 сек
Трэклист:
01. Gammer Gerten's Needle {3:18}
02. Breakfast at Tiffany's {4:17}
03. Halo {2:45}
04. Josey {4:07}
05. A Water Prayer {3:20}
06. Done {3:21}
07. Song to Make Love To {3:09}
08. The Kandinsky Prince {2:25}
09. Home {4:29}
10. Red Light {4:05}
11. I Can Wait {3:05}
12. Wouldn't Change a Thing {4:00}
Код:
Exact Audio Copy V0.99 prebeta 4 from 23. January 2008
EAC extraction logfile from 31. December 2008, 10:15
Deep Blue Something / Home
Used drive  : HL-DT-STDVD-ROM GDR8161B   Adapter: 0  ID: 0
Read mode               : Secure
Utilize accurate stream : Yes
Defeat audio cache      : Yes
Make use of C2 pointers : No
Read offset correction                      : 102
Overread into Lead-In and Lead-Out          : No
Fill up missing offset samples with silence : Yes
Delete leading and trailing silent blocks   : No
Null samples used in CRC calculations       : Yes
Used interface                              : Native Win32 interface for Win NT & 2000
Gap handling                                : Appended to previous track
Used output format              : User Defined Encoder
Selected bitrate                : 320 kBit/s
Quality                         : High
Add ID3 tag                     : No
Command line compressor         : C:\Program Files\03-Multimedia\Exact Audio Copy\Flac\flac.exe
Additional command line options : -V -8 -T "artist=%a" -T "title=%t" -T "album=%g" -T "date=%y" -T "tracknumber=%n" -T "genre=%m" %s
TOC of the extracted CD
     Track |   Start  |  Length  | Start sector | End sector
    ---------------------------------------------------------
        1  |  0:00.00 |  3:17.63 |         0    |    14837
        2  |  3:17.63 |  4:17.18 |     14838    |    34130
        3  |  7:35.06 |  2:44.59 |     34131    |    46489
        4  | 10:19.65 |  4:07.10 |     46490    |    65024
        5  | 14:27.00 |  3:20.31 |     65025    |    80055
        6  | 17:47.31 |  3:20.59 |     80056    |    95114
        7  | 21:08.15 |  3:08.45 |     95115    |   109259
        8  | 24:16.60 |  2:25.30 |    109260    |   120164
        9  | 26:42.15 |  4:28.45 |    120165    |   140309
       10  | 31:10.60 |  4:04.57 |    140310    |   158666
       11  | 35:15.42 |  3:04.42 |    158667    |   172508
       12  | 38:20.09 |  3:59.68 |    172509    |   190501
Track  1
     Filename E:\Glasba\_Uploader\[What]\Deep Blue Something - Home (1995) [FLAC]\01 - Deep Blue Something - Gammer Gerten's Needle.wav
     Pre-gap length  0:00:02.00
     Peak level 98.9 %
     Track quality 100.0 %
     Test CRC 7EFDCE3A
     Copy CRC 7EFDCE3A
     Accurately ripped (confidence 44)  [107F700D]
     Copy OK
Track  2
     Filename E:\Glasba\_Uploader\[What]\Deep Blue Something - Home (1995) [FLAC]\02 - Deep Blue Something - Breakfast at Tiffany's.wav
     Pre-gap length  0:00:00.28
     Peak level 100.0 %
     Track quality 100.0 %
     Test CRC AF4C2B7A
     Copy CRC AF4C2B7A
     Accurately ripped (confidence 44)  [A8496B75]
     Copy OK
Track  3
     Filename E:\Glasba\_Uploader\[What]\Deep Blue Something - Home (1995) [FLAC]\03 - Deep Blue Something - Halo.wav
     Pre-gap length  0:00:00.28
     Peak level 94.6 %
     Track quality 100.0 %
     Test CRC 4D8F410D
     Copy CRC 4D8F410D
     Accurately ripped (confidence 43)  [22D09EBF]
     Copy OK
Track  4
     Filename E:\Glasba\_Uploader\[What]\Deep Blue Something - Home (1995) [FLAC]\04 - Deep Blue Something - Josey.wav
     Pre-gap length  0:00:00.62
     Peak level 99.2 %
     Track quality 100.0 %
     Test CRC AE2E90D6
     Copy CRC AE2E90D6
     Accurately ripped (confidence 43)  [C8B2293E]
     Copy OK
Track  5
     Filename E:\Glasba\_Uploader\[What]\Deep Blue Something - Home (1995) [FLAC]\05 - Deep Blue Something - A Water Prayer.wav
     Pre-gap length  0:00:00.56
     Peak level 95.4 %
     Track quality 100.0 %
     Test CRC B4286FE9
     Copy CRC B4286FE9
     Accurately ripped (confidence 41)  [449B82AB]
     Copy OK
Track  6
     Filename E:\Glasba\_Uploader\[What]\Deep Blue Something - Home (1995) [FLAC]\06 - Deep Blue Something - Done.wav
     Pre-gap length  0:00:00.57
     Peak level 98.9 %
     Track quality 100.0 %
     Test CRC DE601FCF
     Copy CRC DE601FCF
     Accurately ripped (confidence 42)  [6935A741]
     Copy OK
Track  7
     Filename E:\Glasba\_Uploader\[What]\Deep Blue Something - Home (1995) [FLAC]\07 - Deep Blue Something - Song to Make Love To.wav
     Pre-gap length  0:00:00.08
     Peak level 99.0 %
     Track quality 99.9 %
     Test CRC 7CB68395
     Copy CRC 7CB68395
     Accurately ripped (confidence 41)  [F8DA9C87]
     Copy OK
Track  8
     Filename E:\Glasba\_Uploader\[What]\Deep Blue Something - Home (1995) [FLAC]\08 - Deep Blue Something - The Kandinsky Prince.wav
     Pre-gap length  0:00:01.32
     Peak level 99.6 %
     Track quality 100.0 %
     Test CRC 09DF5F9C
     Copy CRC 09DF5F9C
     Accurately ripped (confidence 43)  [DA06002A]
     Copy OK
Track  9
     Filename E:\Glasba\_Uploader\[What]\Deep Blue Something - Home (1995) [FLAC]\09 - Deep Blue Something - Home.wav
     Pre-gap length  0:00:01.78
     Peak level 98.7 %
     Track quality 100.0 %
     Test CRC 92B211BF
     Copy CRC 92B211BF
     Accurately ripped (confidence 40)  [09D5AF7C]
     Copy OK
Track 10
     Filename E:\Glasba\_Uploader\[What]\Deep Blue Something - Home (1995) [FLAC]\10 - Deep Blue Something - Red Light.wav
     Peak level 97.0 %
     Track quality 100.0 %
     Test CRC 03C76F99
     Copy CRC 03C76F99
     Accurately ripped (confidence 41)  [B776A197]
     Copy OK
Track 11
     Filename E:\Glasba\_Uploader\[What]\Deep Blue Something - Home (1995) [FLAC]\11 - Deep Blue Something - I Can Wait.wav
     Pre-gap length  0:00:00.36
     Peak level 98.7 %
     Track quality 100.0 %
     Test CRC 292E5A96
     Copy CRC 292E5A96
     Accurately ripped (confidence 43)  [C9918AF2]
     Copy OK
Track 12
     Filename E:\Glasba\_Uploader\[What]\Deep Blue Something - Home (1995) [FLAC]\12 - Deep Blue Something - Wouldn't Change a Thing.wav
     Pre-gap length  0:00:00.46
     Peak level 97.3 %
     Track quality 100.0 %
     Test CRC 12D0B0C9
     Copy CRC 12D0B0C9
     Accurately ripped (confidence 42)  [3E319C29]
     Copy OK
All tracks accurately ripped
No errors occurred
End of status report
AUDIOCHECKER v2.0 beta (build 457) - by Dester - opdester@freemail.hu
~~~~~~~~~~~~~~~~~~~~~~~~~~~~~~~~~~
-=== DO NOT EDIT THIS FILE! ===-
Path: ...\1995 - Home
01 -=- 01 - Deep Blue Something - Gammer Gerten's Needle.flac -=- CDDA (100%)
02 -=- 02 - Deep Blue Something - Breakfast at Tiffany's.flac -=- CDDA (100%)
03 -=- 03 - Deep Blue Something - Halo.flac -=- CDDA (100%)
04 -=- 04 - Deep Blue Something - Josey.flac -=- CDDA (100%)
05 -=- 05 - Deep Blue Something - A Water Prayer.flac -=- CDDA (99%)
06 -=- 06 - Deep Blue Something - Done.flac -=- CDDA (99%)
07 -=- 07 - Deep Blue Something - Song to Make Love To.flac -=- CDDA (100%)
08 -=- 08 - Deep Blue Something - The Kandinsky Prince.flac -=- CDDA (100%)
09 -=- 09 - Deep Blue Something - Home.flac -=- CDDA (100%)
10 -=- 10 - Deep Blue Something - Red Light.flac -=- CDDA (100%)
11 -=- 11 - Deep Blue Something - I Can Wait.flac -=- CDDA (100%)
12 -=- 12 - Deep Blue Something - Wouldn't Change a Thing.flac -=- CDDA (99%)
Summary 99,75% CDDA
Код:
REM GENRE "Alternative Rock"
REM DATE 1995
REM DISCID A009EC0C
REM COMMENT "ExactAudioCopy v0.99pb4"
PERFORMER "Deep Blue Something"
TITLE "Home"
FILE "01 - Deep Blue Something - Gammer Gerten's Needle.wav" WAVE
  TRACK 01 AUDIO
    TITLE "Gammer Gerten's Needle"
    PERFORMER "Deep Blue Something"
    INDEX 01 00:00:00
  TRACK 02 AUDIO
    TITLE "Breakfast at Tiffany's"
    PERFORMER "Deep Blue Something"
    INDEX 00 03:17:42
FILE "02 - Deep Blue Something - Breakfast at Tiffany's.wav" WAVE
    INDEX 01 00:00:00
  TRACK 03 AUDIO
    TITLE "Halo"
    PERFORMER "Deep Blue Something"
    INDEX 00 04:16:72
FILE "03 - Deep Blue Something - Halo.wav" WAVE
    INDEX 01 00:00:00
  TRACK 04 AUDIO
    TITLE "Josey"
    PERFORMER "Deep Blue Something"
    INDEX 00 02:44:12
FILE "04 - Deep Blue Something - Josey.wav" WAVE
    INDEX 01 00:00:00
  TRACK 05 AUDIO
    TITLE "A Water Prayer"
    PERFORMER "Deep Blue Something"
    INDEX 00 04:06:43
FILE "05 - Deep Blue Something - A Water Prayer.wav" WAVE
    INDEX 01 00:00:00
  TRACK 06 AUDIO
    TITLE "Done"
    PERFORMER "Deep Blue Something"
    INDEX 00 03:19:63
FILE "06 - Deep Blue Something - Done.wav" WAVE
    INDEX 01 00:00:00
  TRACK 07 AUDIO
    TITLE "Song to Make Love To"
    PERFORMER "Deep Blue Something"
    INDEX 00 03:20:53
FILE "07 - Deep Blue Something - Song to Make Love To.wav" WAVE
    INDEX 01 00:00:00
  TRACK 08 AUDIO
    TITLE "The Kandinsky Prince"
    PERFORMER "Deep Blue Something"
    INDEX 00 03:07:21
FILE "08 - Deep Blue Something - The Kandinsky Prince.wav" WAVE
    INDEX 01 00:00:00
  TRACK 09 AUDIO
    TITLE "Home"
    PERFORMER "Deep Blue Something"
    INDEX 00 02:23:46
FILE "09 - Deep Blue Something - Home.wav" WAVE
    INDEX 01 00:00:00
FILE "10 - Deep Blue Something - Red Light.wav" WAVE
  TRACK 10 AUDIO
    TITLE "Red Light"
    PERFORMER "Deep Blue Something"
    INDEX 01 00:00:00
  TRACK 11 AUDIO
    TITLE "I Can Wait"
    PERFORMER "Deep Blue Something"
    INDEX 00 04:04:30
FILE "11 - Deep Blue Something - I Can Wait.wav" WAVE
    INDEX 01 00:00:00
  TRACK 12 AUDIO
    TITLE "Wouldn't Change a Thing"
    PERFORMER "Deep Blue Something"
    INDEX 00 03:04:07
FILE "12 - Deep Blue Something - Wouldn't Change a Thing.wav" WAVE
    INDEX 01 00:00:00
Доп. информация: Источник What.CD (релизёр robijunior) | Discogs
#777Жанр: Pop-Rock
Год выпуска диска: 1996
Производитель диска: Interscope Records (Europe)
Аудио кодек: FLAC
Тип рипа: tracks+.cue
Битрейт аудио: lossless
Продолжительность: 11 мин 57 сек
Трэклист:
01. Breakfast At Tiffany's {4:19}
02. A Water Prayer {3:22}
03. Sun (Non LP Track) {4:16}
Код:
Exact Audio Copy V0.99 prebeta 5 from 4. May 2009
EAC extraction logfile from 20. June 2009, 16:06
Deep Blue Something / Breakfast At Tiffany's
Used drive  : _NEC    DVD_RW ND-2510A   Adapter: 0  ID: 0
Read mode               : Secure
Utilize accurate stream : Yes
Defeat audio cache      : Yes
Make use of C2 pointers : No
Read offset correction                      : 48
Overread into Lead-In and Lead-Out          : No
Fill up missing offset samples with silence : Yes
Delete leading and trailing silent blocks   : No
Null samples used in CRC calculations       : Yes
Used interface                              : Native Win32 interface for Win NT & 2000
Gap handling                                : Appended to previous track
Used output format              : User Defined Encoder
Selected bitrate                : 128 kBit/s
Quality                         : High
Add ID3 tag                     : No
Command line compressor         : C:\Program Files (x86)\Exact Audio Copy\Flac\flac.exe
Additional command line options : -V -8 -T "artist=%a" -T "title=%t" -T "album=%g" -T "date=%y" -T "tracknumber=%n" -T "genre=%m" %s
TOC of the extracted CD
     Track |   Start  |  Length  | Start sector | End sector
    ---------------------------------------------------------
        1  |  0:00.32 |  4:19.30 |        32    |    19486
        2  |  4:19.62 |  3:22.00 |     19487    |    34636
        3  |  7:41.62 |  4:16.18 |     34637    |    53854
Track  1
     Filename F:\Ripped\Deep Blue Something - Breakfast At Tiffany's - 1996 (FLAC)\01 - Breakfast At Tiffany's.wav
     Pre-gap length  0:00:02.42
     Peak level 100.0 %
     Track quality 100.0 %
     Test CRC 884A9D5F
     Copy CRC 884A9D5F
     Accurately ripped (confidence 10)  [B5261DA3]
     Copy OK
Track  2
     Filename F:\Ripped\Deep Blue Something - Breakfast At Tiffany's - 1996 (FLAC)\02 - A Water Prayer.wav
     Pre-gap length  0:00:01.60
     Peak level 95.4 %
     Track quality 100.0 %
     Test CRC 7E19598C
     Copy CRC 7E19598C
     Accurately ripped (confidence 8)  [DF31C95A]
     Copy OK
Track  3
     Filename F:\Ripped\Deep Blue Something - Breakfast At Tiffany's - 1996 (FLAC)\03 - Sun (Non LP Track).wav
     Pre-gap length  0:00:03.02
     Peak level 90.9 %
     Track quality 100.0 %
     Test CRC 71057793
     Copy CRC 71057793
     Accurately ripped (confidence 8)  [BA522ECF]
     Copy OK
All tracks accurately ripped
No errors occurred
End of status report
AUDIOCHECKER v2.0 beta (build 457) - by Dester - opdester@freemail.hu
~~~~~~~~~~~~~~~~~~~~~~~~~~~~~~~~~~
-=== DO NOT EDIT THIS FILE! ===-
Path: ...\1996 - Breakfast At Tiffany's [Single]
01 -=- 01 - Breakfast At Tiffany's.flac -=- CDDA (100%)
02 -=- 02 - A Water Prayer.flac -=- CDDA (99%)
03 -=- 03 - Sun (Non LP Track).flac -=- CDDA (100%)
Summary 99,67% CDDA
Код:
REM GENRE Pop
REM DATE 1996
REM DISCID 1802CE03
REM COMMENT "ExactAudioCopy v0.99pb5"
FILE "01 - Breakfast At Tiffany's.wav" WAVE
  TRACK 01 AUDIO
    PREGAP 00:00:32
    INDEX 01 00:00:00
  TRACK 02 AUDIO
    INDEX 00 04:17:60
FILE "02 - A Water Prayer.wav" WAVE
    INDEX 01 00:00:00
  TRACK 03 AUDIO
    INDEX 00 03:18:73
FILE "03 - Sun (Non LP Track).wav" WAVE
    INDEX 01 00:00:00
Доп. информация: Источник What.CD (релизёр Fesura) | Discogs
#777Жанр: Pop-Rock
Год выпуска диска: 1998
Производитель диска: Interscope Records (Europe)
Аудио кодек: FLAC
Тип рипа: tracks+.cue
Битрейт аудио: lossless
Продолжительность: 1 час 4 мин 28 сек
Трэклист:
01. Daybreak And a Candle End {4:43}
02. So Precious {3:05}
03. She Is {3:27}
04. Cherry Lime Rickey {6:26}
05. Byzantium {4:07}
06. Everything {3:32}
07. Enough To Get By {5:11}
08. Hell In Itself {4:08}
09. Dr. Crippen {4:00}
10. Tonight {3:43}
11. William H. Bonney {4:44}
12. Pullman, Washington {3:52}
13. Light the Fuse {3:41}
14. Parkbench {5:01}
15. Becoming Light {4:47}
Код:
Exact Audio Copy V0.99 prebeta 4 from 23. January 2008
EAC extraction logfile from 27. April 2009, 20:39
Deep Blue Something / Byzantium
Used drive  : HL-DT-STDVD-ROM GDR8161B   Adapter: 0  ID: 0
Read mode               : Secure
Utilize accurate stream : Yes
Defeat audio cache      : Yes
Make use of C2 pointers : No
Read offset correction                      : 102
Overread into Lead-In and Lead-Out          : No
Fill up missing offset samples with silence : Yes
Delete leading and trailing silent blocks   : No
Null samples used in CRC calculations       : Yes
Used interface                              : Native Win32 interface for Win NT & 2000
Gap handling                                : Appended to previous track
Used output format              : User Defined Encoder
Selected bitrate                : 320 kBit/s
Quality                         : High
Add ID3 tag                     : No
Command line compressor         : C:\Program Files\03-Multimedia\Exact Audio Copy\Flac\flac.exe
Additional command line options : -V -8 -T "artist=%a" -T "title=%t" -T "album=%g" -T "date=%y" -T "tracknumber=%n" -T "genre=%m" %s
TOC of the extracted CD
     Track |   Start  |  Length  | Start sector | End sector
    ---------------------------------------------------------
        1  |  0:00.00 |  4:42.42 |         0    |    21191
        2  |  4:42.42 |  3:04.68 |     21192    |    35059
        3  |  7:47.35 |  3:26.62 |     35060    |    50571
        4  | 11:14.22 |  6:26.13 |     50572    |    79534
        5  | 17:40.35 |  4:07.30 |     79535    |    98089
        6  | 21:47.65 |  3:32.35 |     98090    |   114024
        7  | 25:20.25 |  5:10.60 |    114025    |   137334
        8  | 30:31.10 |  4:08.37 |    137335    |   155971
        9  | 34:39.47 |  4:00.33 |    155972    |   174004
       10  | 38:40.05 |  3:43.10 |    174005    |   190739
       11  | 42:23.15 |  4:43.60 |    190740    |   212024
       12  | 47:07.00 |  3:51.65 |    212025    |   229414
       13  | 50:58.65 |  3:41.35 |    229415    |   246024
       14  | 54:40.25 |  5:00.55 |    246025    |   268579
       15  | 59:41.05 |  4:47.05 |    268580    |   290109
Track  1
     Filename E:\Glasba\_Uploader\[What]\Deep Blue Something - Byzantium (1998) [FLAC] New\01 - Deep Blue Something - Daybreak And a Candle End.wav
     Pre-gap length  0:00:02.00
     Peak level 97.7 %
     Track quality 99.9 %
     Test CRC AD514387
     Copy CRC AD514387
     Accurately ripped (confidence 4)  [B325E2DF]
     Copy OK
Track  2
     Filename E:\Glasba\_Uploader\[What]\Deep Blue Something - Byzantium (1998) [FLAC] New\02 - Deep Blue Something - So Precious.wav
     Peak level 98.8 %
     Track quality 100.0 %
     Test CRC E04F1F42
     Copy CRC E04F1F42
     Accurately ripped (confidence 4)  [ABADC09C]
     Copy OK
Track  3
     Filename E:\Glasba\_Uploader\[What]\Deep Blue Something - Byzantium (1998) [FLAC] New\03 - Deep Blue Something - She Is.wav
     Peak level 98.8 %
     Track quality 100.0 %
     Test CRC 9893E042
     Copy CRC 9893E042
     Accurately ripped (confidence 4)  [081DCC72]
     Copy OK
Track  4
     Filename E:\Glasba\_Uploader\[What]\Deep Blue Something - Byzantium (1998) [FLAC] New\04 - Deep Blue Something - Cherry Lime Rickey.wav
     Peak level 95.5 %
     Track quality 99.9 %
     Test CRC 4AB9478A
     Copy CRC 4AB9478A
     Accurately ripped (confidence 4)  [4571E4F8]
     Copy OK
Track  5
     Filename E:\Glasba\_Uploader\[What]\Deep Blue Something - Byzantium (1998) [FLAC] New\05 - Deep Blue Something - Byzantium.wav
     Peak level 93.3 %
     Track quality 99.9 %
     Test CRC D7FF1011
     Copy CRC D7FF1011
     Accurately ripped (confidence 4)  [451CAEBD]
     Copy OK
Track  6
     Filename E:\Glasba\_Uploader\[What]\Deep Blue Something - Byzantium (1998) [FLAC] New\06 - Deep Blue Something - Everything.wav
     Peak level 98.8 %
     Track quality 100.0 %
     Test CRC 8D3F0851
     Copy CRC 8D3F0851
     Accurately ripped (confidence 4)  [359A3396]
     Copy OK
Track  7
     Filename E:\Glasba\_Uploader\[What]\Deep Blue Something - Byzantium (1998) [FLAC] New\07 - Deep Blue Something - Enough To Get By.wav
     Peak level 91.2 %
     Track quality 99.9 %
     Test CRC DC2BB7D6
     Copy CRC DC2BB7D6
     Accurately ripped (confidence 4)  [F640A51F]
     Copy OK
Track  8
     Filename E:\Glasba\_Uploader\[What]\Deep Blue Something - Byzantium (1998) [FLAC] New\08 - Deep Blue Something - Hell In Itself.wav
     Peak level 98.8 %
     Track quality 100.0 %
     Test CRC A8735689
     Copy CRC A8735689
     Accurately ripped (confidence 4)  [B5460DF1]
     Copy OK
Track  9
     Filename E:\Glasba\_Uploader\[What]\Deep Blue Something - Byzantium (1998) [FLAC] New\09 - Deep Blue Something - Dr. Crippen.wav
     Peak level 97.7 %
     Track quality 100.0 %
     Test CRC 07AE730D
     Copy CRC 07AE730D
     Accurately ripped (confidence 4)  [69235F37]
     Copy OK
Track 10
     Filename E:\Glasba\_Uploader\[What]\Deep Blue Something - Byzantium (1998) [FLAC] New\10 - Deep Blue Something - Tonight.wav
     Peak level 98.8 %
     Track quality 99.9 %
     Test CRC 84D6E3B4
     Copy CRC 84D6E3B4
     Accurately ripped (confidence 4)  [E91FFA69]
     Copy OK
Track 11
     Filename E:\Glasba\_Uploader\[What]\Deep Blue Something - Byzantium (1998) [FLAC] New\11 - Deep Blue Something - William H. Bonney.wav
     Peak level 98.8 %
     Track quality 100.0 %
     Test CRC CD43D6CD
     Copy CRC CD43D6CD
     Accurately ripped (confidence 4)  [D87DC6EF]
     Copy OK
Track 12
     Filename E:\Glasba\_Uploader\[What]\Deep Blue Something - Byzantium (1998) [FLAC] New\12 - Deep Blue Something - Pullman, Washington.wav
     Peak level 94.4 %
     Track quality 100.0 %
     Test CRC 84A3A10E
     Copy CRC 84A3A10E
     Accurately ripped (confidence 4)  [95E037C6]
     Copy OK
Track 13
     Filename E:\Glasba\_Uploader\[What]\Deep Blue Something - Byzantium (1998) [FLAC] New\13 - Deep Blue Something - Light the Fuse.wav
     Peak level 97.7 %
     Track quality 99.9 %
     Test CRC A1524360
     Copy CRC A1524360
     Accurately ripped (confidence 4)  [5E6AF0C4]
     Copy OK
Track 14
     Filename E:\Glasba\_Uploader\[What]\Deep Blue Something - Byzantium (1998) [FLAC] New\14 - Deep Blue Something - Parkbench.wav
     Peak level 97.7 %
     Track quality 100.0 %
     Test CRC 1254923E
     Copy CRC 1254923E
     Accurately ripped (confidence 4)  [D0D48531]
     Copy OK
Track 15
     Filename E:\Glasba\_Uploader\[What]\Deep Blue Something - Byzantium (1998) [FLAC] New\15 - Deep Blue Something - Becoming Light.wav
     Peak level 98.8 %
     Track quality 100.0 %
     Test CRC FADA8695
     Copy CRC FADA8695
     Accurately ripped (confidence 4)  [32885085]
     Copy OK
All tracks accurately ripped
No errors occurred
End of status report
AUDIOCHECKER v2.0 beta (build 457) - by Dester - opdester@freemail.hu
~~~~~~~~~~~~~~~~~~~~~~~~~~~~~~~~~~
-=== DO NOT EDIT THIS FILE! ===-
Path: ...\1998 - Byzantium
01 -=- 01 - Deep Blue Something - Daybreak And a Candle End.flac -=- CDDA (100%)
02 -=- 02 - Deep Blue Something - So Precious.flac -=- CDDA (100%)
03 -=- 03 - Deep Blue Something - She Is.flac -=- CDDA (100%)
04 -=- 04 - Deep Blue Something - Cherry Lime Rickey.flac -=- CDDA (100%)
05 -=- 05 - Deep Blue Something - Byzantium.flac -=- CDDA (99%)
06 -=- 06 - Deep Blue Something - Everything.flac -=- CDDA (100%)
07 -=- 07 - Deep Blue Something - Enough To Get By.flac -=- CDDA (100%)
08 -=- 08 - Deep Blue Something - Hell In Itself.flac -=- CDDA (100%)
09 -=- 09 - Deep Blue Something - Dr. Crippen.flac -=- CDDA (100%)
10 -=- 10 - Deep Blue Something - Tonight.flac -=- CDDA (100%)
11 -=- 11 - Deep Blue Something - William H. Bonney.flac -=- CDDA (100%)
12 -=- 12 - Deep Blue Something - Pullman, Washington.flac -=- CDDA (100%)
13 -=- 13 - Deep Blue Something - Light the Fuse.flac -=- CDDA (100%)
14 -=- 14 - Deep Blue Something - Parkbench.flac -=- CDDA (100%)
15 -=- 15 - Deep Blue Something - Becoming Light.flac -=- CDDA (100%)
Summary 99,93% CDDA
Код:
REM GENRE Rock
REM DATE 1998
REM DISCID C90F1C0F
REM COMMENT "ExactAudioCopy v0.99pb4"
FILE "01 - Deep Blue Something - Daybreak And a Candle End.wav" WAVE
  TRACK 01 AUDIO
    INDEX 01 00:00:00
FILE "02 - Deep Blue Something - So Precious.wav" WAVE
  TRACK 02 AUDIO
    INDEX 01 00:00:00
FILE "03 - Deep Blue Something - She Is.wav" WAVE
  TRACK 03 AUDIO
    INDEX 01 00:00:00
FILE "04 - Deep Blue Something - Cherry Lime Rickey.wav" WAVE
  TRACK 04 AUDIO
    INDEX 01 00:00:00
FILE "05 - Deep Blue Something - Byzantium.wav" WAVE
  TRACK 05 AUDIO
    INDEX 01 00:00:00
FILE "06 - Deep Blue Something - Everything.wav" WAVE
  TRACK 06 AUDIO
    INDEX 01 00:00:00
FILE "07 - Deep Blue Something - Enough To Get By.wav" WAVE
  TRACK 07 AUDIO
    INDEX 01 00:00:00
FILE "08 - Deep Blue Something - Hell In Itself.wav" WAVE
  TRACK 08 AUDIO
    INDEX 01 00:00:00
FILE "09 - Deep Blue Something - Dr. Crippen.wav" WAVE
  TRACK 09 AUDIO
    INDEX 01 00:00:00
FILE "10 - Deep Blue Something - Tonight.wav" WAVE
  TRACK 10 AUDIO
    INDEX 01 00:00:00
FILE "11 - Deep Blue Something - William H. Bonney.wav" WAVE
  TRACK 11 AUDIO
    INDEX 01 00:00:00
FILE "12 - Deep Blue Something - Pullman, Washington.wav" WAVE
  TRACK 12 AUDIO
    INDEX 01 00:00:00
FILE "13 - Deep Blue Something - Light the Fuse.wav" WAVE
  TRACK 13 AUDIO
    INDEX 01 00:00:00
FILE "14 - Deep Blue Something - Parkbench.wav" WAVE
  TRACK 14 AUDIO
    INDEX 01 00:00:00
FILE "15 - Deep Blue Something - Becoming Light.wav" WAVE
  TRACK 15 AUDIO
    INDEX 01 00:00:00
Доп. информация: Источник What.CD (релизёр robijunior) | Discogs
#777Жанр: Pop-Rock
Год выпуска диска: 2001
Производитель диска:
Аудио кодек: FLAC
Тип рипа: tracks+.cue
Битрейт аудио: lossless
Продолжительность: 51 мин 56 сек
Трэклист:
01. Military Man {5:08}
02. So Precious {3:05}
03. She Is {3:27}
04. Burning a Past {3:24}
05. Higher {4:35}
06. Number One {3:48}
07. Hell In Itself {4:08}
08. Who Wants It {2:26}
09. Focus {4:12}
10. Parkbench {5:00}
11. Page Me Wolverine {3:19}
12. Enough To Get By {5:14}
13. Beautiful Nightmare {4:11}
Код:
Exact Audio Copy V0.99 prebeta 4 from 23. January 2008
EAC extraction logfile from 28. December 2008, 20:08
Deep Blue Something / Deep Blue Something
Used drive  : TSSTcorpDVD+-RW TS-H653B   Adapter: 0  ID: 0
Read mode               : Secure
Utilize accurate stream : Yes
Defeat audio cache      : Yes
Make use of C2 pointers : No
Read offset correction                      : 6
Overread into Lead-In and Lead-Out          : No
Fill up missing offset samples with silence : Yes
Delete leading and trailing silent blocks   : No
Null samples used in CRC calculations       : Yes
Used interface                              : Native Win32 interface for Win NT & 2000
Gap handling                                : Appended to previous track
Used output format              : User Defined Encoder
Selected bitrate                : 192 kBit/s
Quality                         : High
Add ID3 tag                     : No
Command line compressor         : C:\Program Files\Exact Audio Copy\Flac\flac.exe
Additional command line options : -8 -A tukey(0.25) -A gauss(0.1875) -b 4096 -V -T "artist=%a" -T "title=%t" -T "album=%g" -T "date=%y" -T "tracknumber=%n" -T "genre=%m" %s
TOC of the extracted CD
     Track |   Start  |  Length  | Start sector | End sector
    ---------------------------------------------------------
        1  |  0:00.00 |  5:08.07 |         0    |    23106
        2  |  5:08.07 |  3:04.68 |     23107    |    36974
        3  |  8:13.00 |  3:26.62 |     36975    |    52486
        4  | 11:39.62 |  3:23.70 |     52487    |    67781
        5  | 15:03.57 |  4:35.18 |     67782    |    88424
        6  | 19:39.00 |  3:47.40 |     88425    |   105489
        7  | 23:26.40 |  4:07.60 |    105490    |   124074
        8  | 27:34.25 |  2:25.55 |    124075    |   135004
        9  | 30:00.05 |  4:12.02 |    135005    |   153906
       10  | 34:12.07 |  5:00.05 |    153907    |   176411
       11  | 39:12.12 |  3:18.73 |    176412    |   191334
       12  | 42:31.10 |  5:13.50 |    191335    |   214859
       13  | 47:44.60 |  4:11.22 |    214860    |   233706
Track  1
     Filename C:\Documents and Settings\Administrator\Desktop\!Music\Deep Blue Something - Deep Blue Something FLAC\01 - Military Man.wav
     Pre-gap length  0:00:02.00
     Peak level 99.8 %
     Track quality 100.0 %
     Test CRC 67024BBF
     Copy CRC 67024BBF
     Track not present in AccurateRip database
     Copy OK
Track  2
     Filename C:\Documents and Settings\Administrator\Desktop\!Music\Deep Blue Something - Deep Blue Something FLAC\02 - So Precious.wav
     Peak level 98.8 %
     Track quality 100.0 %
     Test CRC 161DDDCE
     Copy CRC 161DDDCE
     Track not present in AccurateRip database
     Copy OK
Track  3
     Filename C:\Documents and Settings\Administrator\Desktop\!Music\Deep Blue Something - Deep Blue Something FLAC\03 - She Is.wav
     Peak level 98.8 %
     Track quality 100.0 %
     Test CRC 82426C7E
     Copy CRC 82426C7E
     Track not present in AccurateRip database
     Copy OK
Track  4
     Filename C:\Documents and Settings\Administrator\Desktop\!Music\Deep Blue Something - Deep Blue Something FLAC\04 - Burning a Past.wav
     Peak level 100.0 %
     Track quality 100.0 %
     Test CRC 23BE8DBA
     Copy CRC 23BE8DBA
     Track not present in AccurateRip database
     Copy OK
Track  5
     Filename C:\Documents and Settings\Administrator\Desktop\!Music\Deep Blue Something - Deep Blue Something FLAC\05 - Higher.wav
     Peak level 99.8 %
     Track quality 100.0 %
     Test CRC 4FF34D90
     Copy CRC 4FF34D90
     Track not present in AccurateRip database
     Copy OK
Track  6
     Filename C:\Documents and Settings\Administrator\Desktop\!Music\Deep Blue Something - Deep Blue Something FLAC\06 - Number One.wav
     Peak level 99.8 %
     Track quality 100.0 %
     Test CRC 758FF5A5
     Copy CRC 758FF5A5
     Track not present in AccurateRip database
     Copy OK
Track  7
     Filename C:\Documents and Settings\Administrator\Desktop\!Music\Deep Blue Something - Deep Blue Something FLAC\07 - Hell In Itself.wav
     Peak level 98.8 %
     Track quality 100.0 %
     Test CRC FD8B06A9
     Copy CRC FD8B06A9
     Track not present in AccurateRip database
     Copy OK
Track  8
     Filename C:\Documents and Settings\Administrator\Desktop\!Music\Deep Blue Something - Deep Blue Something FLAC\08 - Who Wants It.wav
     Peak level 99.8 %
     Track quality 100.0 %
     Test CRC 0C605AF3
     Copy CRC 0C605AF3
     Track not present in AccurateRip database
     Copy OK
Track  9
     Filename C:\Documents and Settings\Administrator\Desktop\!Music\Deep Blue Something - Deep Blue Something FLAC\09 - Focus.wav
     Peak level 99.8 %
     Track quality 99.9 %
     Test CRC 1329D362
     Copy CRC 1329D362
     Track not present in AccurateRip database
     Copy OK
Track 10
     Filename C:\Documents and Settings\Administrator\Desktop\!Music\Deep Blue Something - Deep Blue Something FLAC\10 - Parkbench.wav
     Peak level 98.8 %
     Track quality 100.0 %
     Test CRC 60DC9FF0
     Copy CRC 60DC9FF0
     Track not present in AccurateRip database
     Copy OK
Track 11
     Filename C:\Documents and Settings\Administrator\Desktop\!Music\Deep Blue Something - Deep Blue Something FLAC\11 - Page Me Wolverine.wav
     Peak level 99.8 %
     Track quality 100.0 %
     Test CRC F4F22D46
     Copy CRC F4F22D46
     Track not present in AccurateRip database
     Copy OK
Track 12
     Filename C:\Documents and Settings\Administrator\Desktop\!Music\Deep Blue Something - Deep Blue Something FLAC\12 - Enough To Get By.wav
     Peak level 91.2 %
     Track quality 100.0 %
     Test CRC 5A553F43
     Copy CRC 5A553F43
     Track not present in AccurateRip database
     Copy OK
Track 13
     Filename C:\Documents and Settings\Administrator\Desktop\!Music\Deep Blue Something - Deep Blue Something FLAC\13 - Beautiful Nightmare.wav
     Peak level 99.8 %
     Track quality 100.0 %
     Test CRC C3DF5131
     Copy CRC C3DF5131
     Track not present in AccurateRip database
     Copy OK
None of the tracks are present in the AccurateRip database
No errors occurred
End of status report
AUDIOCHECKER v2.0 beta (build 457) - by Dester - opdester@freemail.hu
~~~~~~~~~~~~~~~~~~~~~~~~~~~~~~~~~~
-=== DO NOT EDIT THIS FILE! ===-
Path: ...\2001 - Deep Blue Something
01 -=- 01 - Military Man.flac -=- CDDA (100%)
02 -=- 02 - So Precious.flac -=- CDDA (100%)
03 -=- 03 - She Is.flac -=- CDDA (100%)
04 -=- 04 - Burning a Past.flac -=- CDDA (100%)
05 -=- 05 - Higher.flac -=- CDDA (99%)
06 -=- 06 - Number One.flac -=- CDDA (100%)
07 -=- 07 - Hell In Itself.flac -=- CDDA (100%)
08 -=- 08 - Who Wants It.flac -=- CDDA (100%)
09 -=- 09 - Focus.flac -=- CDDA (100%)
10 -=- 10 - Parkbench.flac -=- CDDA (100%)
11 -=- 11 - Page Me Wolverine.flac -=- CDDA (100%)
12 -=- 12 - Enough To Get By.flac -=- CDDA (100%)
13 -=- 13 - Beautiful Nightmare.flac -=- CDDA (100%)
Summary 99,92% CDDA
Код:
REM GENRE Rock
REM DATE 2001
REM DISCID A10C2C0D
REM COMMENT "ExactAudioCopy v0.99pb4"
PERFORMER "Deep Blue Something"
TITLE "Deep Blue Something"
FILE "01 - Military Man.wav" WAVE
  TRACK 01 AUDIO
    TITLE "Military Man"
    PERFORMER "Deep Blue Something"
    INDEX 01 00:00:00
FILE "02 - So Precious.wav" WAVE
  TRACK 02 AUDIO
    TITLE "So Precious"
    PERFORMER "Deep Blue Something"
    INDEX 01 00:00:00
FILE "03 - She Is.wav" WAVE
  TRACK 03 AUDIO
    TITLE "She Is"
    PERFORMER "Deep Blue Something"
    INDEX 01 00:00:00
FILE "04 - Burning a Past.wav" WAVE
  TRACK 04 AUDIO
    TITLE "Burning a Past"
    PERFORMER "Deep Blue Something"
    INDEX 01 00:00:00
FILE "05 - Higher.wav" WAVE
  TRACK 05 AUDIO
    TITLE "Higher"
    PERFORMER "Deep Blue Something"
    INDEX 01 00:00:00
FILE "06 - Number One.wav" WAVE
  TRACK 06 AUDIO
    TITLE "Number One"
    PERFORMER "Deep Blue Something"
    INDEX 01 00:00:00
FILE "07 - Hell In Itself.wav" WAVE
  TRACK 07 AUDIO
    TITLE "Hell In Itself"
    PERFORMER "Deep Blue Something"
    INDEX 01 00:00:00
FILE "08 - Who Wants It.wav" WAVE
  TRACK 08 AUDIO
    TITLE "Who Wants It"
    PERFORMER "Deep Blue Something"
    INDEX 01 00:00:00
FILE "09 - Focus.wav" WAVE
  TRACK 09 AUDIO
    TITLE "Focus"
    PERFORMER "Deep Blue Something"
    INDEX 01 00:00:00
FILE "10 - Parkbench.wav" WAVE
  TRACK 10 AUDIO
    TITLE "Parkbench"
    PERFORMER "Deep Blue Something"
    INDEX 01 00:00:00
FILE "11 - Page Me Wolverine.wav" WAVE
  TRACK 11 AUDIO
    TITLE "Page Me Wolverine"
    PERFORMER "Deep Blue Something"
    INDEX 01 00:00:00
FILE "12 - Enough To Get By.wav" WAVE
  TRACK 12 AUDIO
    TITLE "Enough To Get By"
    PERFORMER "Deep Blue Something"
    INDEX 01 00:00:00
FILE "13 - Beautiful Nightmare.wav" WAVE
  TRACK 13 AUDIO
    TITLE "Beautiful Nightmare"
    PERFORMER "Deep Blue Something"
    INDEX 01 00:00:00
Доп. информация: Источник What.CD (релизёр notfake) | Amazon
Правила, инструкции, FAQ!!!
Торрент  Добавлен [26 мар 2019, 20:38] Скачать торрент Магнет ссылка
Скачать торрент
[ Размер 23.85 КБ / Просмотров 1 ]

Статус
Проверен 
 
Размер  1.58 ГБ
Приватный: Нет (DHT включён)
.torrent скачан  0
 


     Отправить личное сообщение
   
Страница 1 из 1
Показать сообщения за:  Поле сортировки  
Начать новую тему Ответить на тему


Сейчас этот форум просматривают: нет зарегистрированных пользователей и гости: 0


Вы не можете начинать темы
Вы не можете отвечать на сообщения
Вы не можете редактировать свои сообщения
Вы не можете удалять свои сообщения
Вы не можете добавлять вложения

Перейти:  
cron