Начать новую тему Ответить на тему
Статистика раздачи
Размер: 997.12 МБ | Добавлен: 26 мар 2019, 20:11 | Скачали: 2
Сидеров: 31  [0 байт/сек]    Личеров: 0  [0 байт/сек]
Пред. тема | След. тема 

Автор
Сообщение

СообщениеДобавлено: 26 мар 2019, 20:11 

Ответить с цитатой 

Deacon Blue / Dignity - The Best Of Deacon Blue [2CD]
Жанр: Pop/Rock
Носитель: CD
Страна-производитель диска (релиза): EU
Год издания: 2009
Издатель (лейбл): Camden Deluxe/Sony Music
Номер по каталогу: 88697492382
Страна исполнителя (группы): Scotland
Аудиокодек: FLAC (*.flac)
Тип рипа: tracks+.cue
Битрейт аудио: lossless
Продолжительность: 01:15:54+01:08:21
Источник (релизер): Own CD & Rip [from what.cd]
Наличие сканов в содержимом раздачи:
Треклист
01. Real Gone Kid
02. Dignity
03. Twist And Shout
04. Your Town
05. Fergus Sings The Blues
06. Wages Day
07. Loaded
08. When Will You (Make My Telephone Ring)
09. Love And Regret
10. Your Swaying Arms
11. Will We Be Lovers
12. Queen Of The New Year
13. Chocolate Girl
14. Closing Time
15. Cover From The Sky
16. I Was Right And You Were Wrong
17. Only Tender Love
18. Hang Your Head
Код:
Exact Audio Copy V1.0 beta 6 from 9. April 2015
EAC extraction logfile from 18. January 2016, 9:52
Deacon Blue / Dignity - The Best Of Deacon Blue (CD1)
Used drive  : HL-DT-STDVDRAM GH22NS40   Adapter: 1  ID: 0
Read mode               : Secure
Utilize accurate stream : Yes
Defeat audio cache      : Yes
Make use of C2 pointers : No
Read offset correction                      : 667
Overread into Lead-In and Lead-Out          : No
Fill up missing offset samples with silence : Yes
Delete leading and trailing silent blocks   : No
Null samples used in CRC calculations       : Yes
Used interface                              : Native Win32 interface for Win NT & 2000
Gap handling                                : Appended to previous track
Used output format              : User Defined Encoder
Selected bitrate                : 1024 kBit/s
Quality                         : High
Add ID3 tag                     : Yes
Command line compressor         : C:\Program Files\Exact Audio Copy\Flac\flac.exe
Additional command line options : -V -8 -T "Date=%year%" -T "Genre=%genre%" %source%
TOC of the extracted CD
     Track |   Start  |  Length  | Start sector | End sector
    ---------------------------------------------------------
        1  |  0:00.00 |  4:07.04 |         0    |    18528
        2  |  4:07.04 |  4:01.05 |     18529    |    36608
        3  |  8:08.09 |  3:36.21 |     36609    |    52829
        4  | 11:44.30 |  5:20.32 |     52830    |    76861
        5  | 17:04.62 |  3:52.15 |     76862    |    94276
        6  | 20:57.02 |  3:12.13 |     94277    |   108689
        7  | 24:09.15 |  4:31.10 |    108690    |   129024
        8  | 28:40.25 |  4:52.71 |    129025    |   150995
        9  | 33:33.21 |  4:49.22 |    150996    |   172692
       10  | 38:22.43 |  4:13.02 |    172693    |   191669
       11  | 42:35.45 |  3:50.23 |    191670    |   208942
       12  | 46:25.68 |  3:37.25 |    208943    |   225242
       13  | 50:03.18 |  3:17.26 |    225243    |   240043
       14  | 53:20.44 |  6:12.70 |    240044    |   268013
       15  | 59:33.39 |  3:37.12 |    268014    |   284300
       16  | 63:10.51 |  4:52.43 |    284301    |   306243
       17  | 68:03.19 |  4:07.24 |    306244    |   324792
       18  | 72:10.43 |  4:04.41 |    324793    |   343133
Track  1
     Filename I:\Rips\What.cd\01 Real Gone Kid.wav
     Pre-gap length  0:00:02.00
     Peak level 100.0 %
     Extraction speed 1.1 X
     Track quality 100.0 %
     Test CRC 69193805
     Copy CRC 69193805
     Accurately ripped (confidence 10)  [F6FF1192]  (AR v2)
     Copy OK
Track  2
     Filename I:\Rips\What.cd\02 Dignity.wav
     Pre-gap length  0:00:01.21
     Peak level 100.0 %
     Extraction speed 1.2 X
     Track quality 100.0 %
     Test CRC DB1A974A
     Copy CRC DB1A974A
     Accurately ripped (confidence 10)  [36D3A120]  (AR v2)
     Copy OK
Track  3
     Filename I:\Rips\What.cd\03 Twist And Shout.wav
     Pre-gap length  0:00:01.21
     Peak level 100.0 %
     Extraction speed 1.3 X
     Track quality 100.0 %
     Test CRC 06978B9B
     Copy CRC 06978B9B
     Accurately ripped (confidence 10)  [66573B46]  (AR v2)
     Copy OK
Track  4
     Filename I:\Rips\What.cd\04 Your Town.wav
     Pre-gap length  0:00:01.21
     Peak level 100.0 %
     Extraction speed 1.5 X
     Track quality 100.0 %
     Test CRC 65D4B3FD
     Copy CRC 65D4B3FD
     Accurately ripped (confidence 10)  [3B24EC3F]  (AR v2)
     Copy OK
Track  5
     Filename I:\Rips\What.cd\05 Fergus Sings The Blues.wav
     Pre-gap length  0:00:01.21
     Peak level 100.0 %
     Extraction speed 1.6 X
     Track quality 100.0 %
     Test CRC 47288B66
     Copy CRC 47288B66
     Accurately ripped (confidence 10)  [C157816C]  (AR v2)
     Copy OK
Track  6
     Filename I:\Rips\What.cd\06 Wages Day.wav
     Pre-gap length  0:00:01.21
     Peak level 100.0 %
     Extraction speed 1.5 X
     Track quality 100.0 %
     Test CRC DEE85890
     Copy CRC DEE85890
     Accurately ripped (confidence 10)  [16DDE4BC]  (AR v2)
     Copy OK
Track  7
     Filename I:\Rips\What.cd\07 Loaded.wav
     Pre-gap length  0:00:01.21
     Peak level 100.0 %
     Extraction speed 1.7 X
     Track quality 100.0 %
     Test CRC 4CDAD38F
     Copy CRC 4CDAD38F
     Accurately ripped (confidence 10)  [D24FF9CC]  (AR v2)
     Copy OK
Track  8
     Filename I:\Rips\What.cd\08 When Will You (Make My Telephone Ring).wav
     Pre-gap length  0:00:01.21
     Peak level 100.0 %
     Extraction speed 1.8 X
     Track quality 100.0 %
     Test CRC 4D5533BF
     Copy CRC 4D5533BF
     Accurately ripped (confidence 10)  [FAB53E89]  (AR v2)
     Copy OK
Track  9
     Filename I:\Rips\What.cd\09 Love And Regret.wav
     Pre-gap length  0:00:01.21
     Peak level 100.0 %
     Extraction speed 1.9 X
     Track quality 100.0 %
     Test CRC CC60177B
     Copy CRC CC60177B
     Accurately ripped (confidence 9)  [32C9E573]  (AR v2)
     Copy OK
Track 10
     Filename I:\Rips\What.cd\10 Your Swaying Arms.wav
     Pre-gap length  0:00:01.21
     Peak level 100.0 %
     Extraction speed 1.9 X
     Track quality 100.0 %
     Test CRC 88B027E6
     Copy CRC 88B027E6
     Accurately ripped (confidence 10)  [9A09C14E]  (AR v2)
     Copy OK
Track 11
     Filename I:\Rips\What.cd\11 Will We Be Lovers.wav
     Pre-gap length  0:00:01.21
     Peak level 100.0 %
     Extraction speed 1.9 X
     Track quality 100.0 %
     Test CRC D81ECFFD
     Copy CRC D81ECFFD
     Accurately ripped (confidence 10)  [756D2653]  (AR v2)
     Copy OK
Track 12
     Filename I:\Rips\What.cd\12 Queen Of The New Year.wav
     Pre-gap length  0:00:01.21
     Peak level 100.0 %
     Extraction speed 2.0 X
     Track quality 100.0 %
     Test CRC 8DCE75E5
     Copy CRC 8DCE75E5
     Accurately ripped (confidence 9)  [DF694325]  (AR v2)
     Copy OK
Track 13
     Filename I:\Rips\What.cd\13 Chocolate Girl.wav
     Pre-gap length  0:00:01.21
     Peak level 100.0 %
     Extraction speed 2.1 X
     Track quality 100.0 %
     Test CRC A3D6318D
     Copy CRC A3D6318D
     Accurately ripped (confidence 10)  [092431A4]  (AR v2)
     Copy OK
Track 14
     Filename I:\Rips\What.cd\14 Closing Time.wav
     Pre-gap length  0:00:01.20
     Peak level 100.0 %
     Extraction speed 2.3 X
     Track quality 100.0 %
     Test CRC 0D60242F
     Copy CRC 0D60242F
     Accurately ripped (confidence 9)  [BF4ECC53]  (AR v2)
     Copy OK
Track 15
     Filename I:\Rips\What.cd\15 Cover From The Sky.wav
     Pre-gap length  0:00:01.21
     Peak level 100.0 %
     Extraction speed 2.2 X
     Track quality 100.0 %
     Test CRC 63889179
     Copy CRC 63889179
     Accurately ripped (confidence 9)  [FB40DFFF]  (AR v2)
     Copy OK
Track 16
     Filename I:\Rips\What.cd\16 I Was Right And You Were Wrong.wav
     Pre-gap length  0:00:01.21
     Peak level 100.0 %
     Extraction speed 2.4 X
     Track quality 100.0 %
     Test CRC 64AADEC1
     Copy CRC 64AADEC1
     Accurately ripped (confidence 10)  [A451FA42]  (AR v2)
     Copy OK
Track 17
     Filename I:\Rips\What.cd\17 Only Tender Love.wav
     Pre-gap length  0:00:01.21
     Peak level 100.0 %
     Extraction speed 2.1 X
     Track quality 99.9 %
     Test CRC A4AAECBF
     Copy CRC A4AAECBF
     Accurately ripped (confidence 10)  [C47DF1D7]  (AR v2)
     Copy OK
Track 18
     Filename I:\Rips\What.cd\18 Hang Your Head.wav
     Pre-gap length  0:00:01.21
     Peak level 100.0 %
     Extraction speed 2.5 X
     Track quality 100.0 %
     Test CRC 454996B3
     Copy CRC 454996B3
     Accurately ripped (confidence 10)  [899E1275]  (AR v2)
     Copy OK
All tracks accurately ripped
No errors occurred
End of status report
---- CUETools DB Plugin V2.1.6
[CTDB TOCID: dRrMWe.3G2YKwtj5gcDtCyHqsto-] found
Submit result: dRrMWe.3G2YKwtj5gcDtCyHqsto- has been confirmed
Track | CTDB Status
  1   | (5/5) Accurately ripped
  2   | (5/5) Accurately ripped
  3   | (5/5) Accurately ripped
  4   | (5/5) Accurately ripped
  5   | (5/5) Accurately ripped
  6   | (5/5) Accurately ripped
  7   | (5/5) Accurately ripped
  8   | (5/5) Accurately ripped
  9   | (5/5) Accurately ripped
 10   | (5/5) Accurately ripped
 11   | (5/5) Accurately ripped
 12   | (5/5) Accurately ripped
 13   | (5/5) Accurately ripped
 14   | (5/5) Accurately ripped
 15   | (5/5) Accurately ripped
 16   | (5/5) Accurately ripped
 17   | (5/5) Accurately ripped
 18   | (5/5) Accurately ripped
==== Log checksum E0552F97CC792FD8D929667C69FBA61D4926CEDD74A24BFED464D0F4698FB838 ====
Код:
REM GENRE Rock
REM DATE 2009
REM DISCID ED11DF12
REM COMMENT "ExactAudioCopy v1.0b6"
PERFORMER "Deacon Blue"
TITLE "Dignity - The Best Of Deacon Blue (CD1)"
FILE "01 Real Gone Kid.wav" WAVE
  TRACK 01 AUDIO
    TITLE "Real Gone Kid"
    PERFORMER "Deacon Blue"
    INDEX 01 00:00:00
  TRACK 02 AUDIO
    TITLE "Dignity"
    PERFORMER "Deacon Blue"
    INDEX 00 04:05:58
FILE "02 Dignity.wav" WAVE
    INDEX 01 00:00:00
  TRACK 03 AUDIO
    TITLE "Twist And Shout"
    PERFORMER "Deacon Blue"
    INDEX 00 03:59:59
FILE "03 Twist And Shout.wav" WAVE
    INDEX 01 00:00:00
  TRACK 04 AUDIO
    TITLE "Your Town"
    PERFORMER "Deacon Blue"
    INDEX 00 03:35:00
FILE "04 Your Town.wav" WAVE
    INDEX 01 00:00:00
  TRACK 05 AUDIO
    TITLE "Fergus Sings The Blues"
    PERFORMER "Deacon Blue"
    INDEX 00 05:19:11
FILE "05 Fergus Sings The Blues.wav" WAVE
    INDEX 01 00:00:00
  TRACK 06 AUDIO
    TITLE "Wages Day"
    PERFORMER "Deacon Blue"
    INDEX 00 03:50:69
FILE "06 Wages Day.wav" WAVE
    INDEX 01 00:00:00
  TRACK 07 AUDIO
    TITLE "Loaded"
    PERFORMER "Deacon Blue"
    INDEX 00 03:10:67
FILE "07 Loaded.wav" WAVE
    INDEX 01 00:00:00
  TRACK 08 AUDIO
    TITLE "When Will You (Make My Telephone Ring)"
    PERFORMER "Deacon Blue"
    INDEX 00 04:29:64
FILE "08 When Will You (Make My Telephone Ring).wav" WAVE
    INDEX 01 00:00:00
  TRACK 09 AUDIO
    TITLE "Love And Regret"
    PERFORMER "Deacon Blue"
    INDEX 00 04:51:50
FILE "09 Love And Regret.wav" WAVE
    INDEX 01 00:00:00
  TRACK 10 AUDIO
    TITLE "Your Swaying Arms"
    PERFORMER "Deacon Blue"
    INDEX 00 04:48:01
FILE "10 Your Swaying Arms.wav" WAVE
    INDEX 01 00:00:00
  TRACK 11 AUDIO
    TITLE "Will We Be Lovers"
    PERFORMER "Deacon Blue"
    INDEX 00 04:11:56
FILE "11 Will We Be Lovers.wav" WAVE
    INDEX 01 00:00:00
  TRACK 12 AUDIO
    TITLE "Queen Of The New Year"
    PERFORMER "Deacon Blue"
    INDEX 00 03:49:02
FILE "12 Queen Of The New Year.wav" WAVE
    INDEX 01 00:00:00
  TRACK 13 AUDIO
    TITLE "Chocolate Girl"
    PERFORMER "Deacon Blue"
    INDEX 00 03:36:04
FILE "13 Chocolate Girl.wav" WAVE
    INDEX 01 00:00:00
  TRACK 14 AUDIO
    TITLE "Closing Time"
    PERFORMER "Deacon Blue"
    INDEX 00 03:16:06
FILE "14 Closing Time.wav" WAVE
    INDEX 01 00:00:00
  TRACK 15 AUDIO
    TITLE "Cover From The Sky"
    PERFORMER "Deacon Blue"
    INDEX 00 06:11:49
FILE "15 Cover From The Sky.wav" WAVE
    INDEX 01 00:00:00
  TRACK 16 AUDIO
    TITLE "I Was Right And You Were Wrong"
    PERFORMER "Deacon Blue"
    INDEX 00 03:35:66
FILE "16 I Was Right And You Were Wrong.wav" WAVE
    INDEX 01 00:00:00
  TRACK 17 AUDIO
    TITLE "Only Tender Love"
    PERFORMER "Deacon Blue"
    INDEX 00 04:51:22
FILE "17 Only Tender Love.wav" WAVE
    INDEX 01 00:00:00
  TRACK 18 AUDIO
    TITLE "Hang Your Head"
    PERFORMER "Deacon Blue"
    INDEX 00 04:06:03
FILE "18 Hang Your Head.wav" WAVE
    INDEX 01 00:00:00
Код:
[CUETools log; Date: 24.04.2017 10:42:58; Version: 2.1.5]
[CTDB TOCID: dRrMWe.3G2YKwtj5gcDtCyHqsto-] found.
Track | CTDB Status
  1   | (11/11) Accurately ripped
  2   | (11/11) Accurately ripped
  3   | (11/11) Accurately ripped
  4   | (11/11) Accurately ripped
  5   | (11/11) Accurately ripped
  6   | (11/11) Accurately ripped
  7   | (10/11) Accurately ripped
  8   | (11/11) Accurately ripped
  9   | (11/11) Accurately ripped
 10   | (11/11) Accurately ripped
 11   | (11/11) Accurately ripped
 12   | (11/11) Accurately ripped
 13   | (11/11) Accurately ripped
 14   | (11/11) Accurately ripped
 15   | (11/11) Accurately ripped
 16   | (11/11) Accurately ripped
 17   | (11/11) Accurately ripped
 18   | (11/11) Accurately ripped
[AccurateRip ID: 00315481-0293ad2d-ed11df12] found.
Track   [  CRC   |   V2   ] Status
 01     [884c498b|f6ff1192] (11+11/24) Accurately ripped
 02     [9b70554b|36d3a120] (11+11/24) Accurately ripped
 03     [8bf213ff|66573b46] (11+11/24) Accurately ripped
 04     [155997f3|3b24ec3f] (11+11/24) Accurately ripped
 05     [97616a96|c157816c] (11+11/24) Accurately ripped
 06     [8752f262|16dde4bc] (11+11/24) Accurately ripped
 07     [bd28c28d|d24ff9cc] (11+11/24) Accurately ripped
 08     [71924170|fab53e89] (11+11/24) Accurately ripped
 09     [1fad03f7|32c9e573] (11+10/23) Accurately ripped
 10     [73f2c602|9a09c14e] (11+11/24) Accurately ripped
 11     [739fd36b|756d2653] (11+11/24) Accurately ripped
 12     [03044cf6|df694325] (11+10/23) Accurately ripped
 13     [06e42220|092431a4] (11+11/24) Accurately ripped
 14     [4469f8b6|bf4ecc53] (11+10/23) Accurately ripped
 15     [b1e60186|fb40dfff] (11+10/23) Accurately ripped
 16     [2495a2ed|a451fa42] (11+11/24) Accurately ripped
 17     [537baa9a|c47df1d7] (11+11/24) Accurately ripped
 18     [11360cdd|899e1275] (11+11/24) Accurately ripped
Offsetted by 12:
 01     [adfdccdb] (00/24) No match (V2 was not tested)
 02     [6a8c86a7] (00/24) No match (V2 was not tested)
 03     [e02d7333] (00/24) No match (V2 was not tested)
 04     [b4dc8b27] (00/24) No match (V2 was not tested)
 05     [ab467122] (00/24) No match (V2 was not tested)
 06     [9dd5c45a] (00/24) No match (V2 was not tested)
 07     [cc6146a9] (00/24) No match (V2 was not tested)
 08     [c579611c] (00/24) No match (V2 was not tested)
 09     [a34de52f] (00/23) No match (V2 was not tested)
 10     [fb6a0ea2] (00/24) No match (V2 was not tested)
 11     [fb47459f] (00/24) No match (V2 was not tested)
 12     [5fb97ebe] (00/23) No match (V2 was not tested)
 13     [66602a58] (00/24) No match (V2 was not tested)
 14     [c42cd3de] (00/23) No match (V2 was not tested)
 15     [b04cb882] (00/23) No match (V2 was not tested)
 16     [1849da4d] (00/24) No match (V2 was not tested)
 17     [1c9b7566] (00/24) No match (V2 was not tested)
 18     [44bc2dd1] (00/24) No match (V2 was not tested)
Track Peak [ CRC32  ] [W/O NULL] [  LOG   ]
 --  100,0 [9B0AD06E] [1BE9285A]
 01  100,0 [69193805] [93803E89]   CRC32
 02  100,0 [DB1A974A] [93FDAD2F]   CRC32
 03  100,0 [06978B9B] [5C11BDBB]   CRC32
 04  100,0 [65D4B3FD] [8AE1C5FA]   CRC32
 05  100,0 [47288B66] [40733B90]   CRC32
 06  100,0 [DEE85890] [B778D38E]   CRC32
 07  100,0 [4CDAD38F] [A29FC3A5]   CRC32
 08  100,0 [4D5533BF] [8F516F51]   CRC32
 09  100,0 [CC60177B] [48A81325]   CRC32
 10  100,0 [88B027E6] [E0CBF3B6]   CRC32
 11  100,0 [D81ECFFD] [6957C529]   CRC32
 12  100,0 [8DCE75E5] [911C6A3F]   CRC32
 13  100,0 [A3D6318D] [45201E15]   CRC32
 14  100,0 [0D60242F] [E51653E2]   CRC32
 15  100,0 [63889179] [08FD4ADA]   CRC32
 16  100,0 [64AADEC1] [90BCAA5E]   CRC32
 17  100,0 [A4AAECBF] [3D464F16]   CRC32
 18  100,0 [454996B3] [1F715696]   CRC32
Треклист
01. I'll Never Fall In Love Again
02. Ragman
03. Beautiful Stranger
04. Real Gone Kid (Extended Version)
05. Long Window To Love
06. Fourteen Years
07. Orphans
08. Silhouette
09. Your Constant Heart
10. Circus Lights (Acoustic Version)
11. My America
12. The Very Thing
13. Love's Great Fears
14. Fellow Hoodlums
15. One Day I'll Go Walking
16. Fall So Freely Down
17. All Over The World
18. Raintown
Код:
Exact Audio Copy V1.0 beta 6 from 9. April 2015
EAC extraction logfile from 18. January 2016, 12:18
Deacon Blue / Dignity - The Best Of Deacon Blue (CD2)
Used drive  : HL-DT-STDVDRAM GH22NS40   Adapter: 1  ID: 0
Read mode               : Secure
Utilize accurate stream : Yes
Defeat audio cache      : Yes
Make use of C2 pointers : No
Read offset correction                      : 667
Overread into Lead-In and Lead-Out          : No
Fill up missing offset samples with silence : Yes
Delete leading and trailing silent blocks   : No
Null samples used in CRC calculations       : Yes
Used interface                              : Native Win32 interface for Win NT & 2000
Gap handling                                : Appended to previous track
Used output format              : User Defined Encoder
Selected bitrate                : 1024 kBit/s
Quality                         : High
Add ID3 tag                     : Yes
Command line compressor         : C:\Program Files\Exact Audio Copy\Flac\flac.exe
Additional command line options : -V -8 -T "Date=%year%" -T "Genre=%genre%" %source%
TOC of the extracted CD
     Track |   Start  |  Length  | Start sector | End sector
    ---------------------------------------------------------
        1  |  0:00.00 |  2:47.62 |         0    |    12586
        2  |  2:47.62 |  3:08.52 |     12587    |    26738
        3  |  5:56.39 |  3:53.53 |     26739    |    44266
        4  |  9:50.17 |  7:07.69 |     44267    |    76360
        5  | 16:58.11 |  3:14.18 |     76361    |    90928
        6  | 20:12.29 |  2:44.71 |     90929    |   103299
        7  | 22:57.25 |  3:34.72 |    103300    |   119421
        8  | 26:32.22 |  3:19.34 |    119422    |   134380
        9  | 29:51.56 |  4:12.16 |    134381    |   153296
       10  | 34:03.72 |  3:00.72 |    153297    |   166868
       11  | 37:04.69 |  4:11.46 |    166869    |   185739
       12  | 41:16.40 |  3:33.38 |    185740    |   201752
       13  | 44:50.03 |  3:41.67 |    201753    |   218394
       14  | 48:31.70 |  3:22.15 |    218395    |   233559
       15  | 51:54.10 |  5:04.18 |    233560    |   256377
       16  | 56:58.28 |  4:18.18 |    256378    |   275745
       17  | 61:16.46 |  3:29.26 |    275746    |   291446
       18  | 64:45.72 |  3:51.63 |    291447    |   308834
Track  1
     Filename I:\Rips\What.cd\01 I'll Never Fall In Love Again.wav
     Pre-gap length  0:00:02.00
     Peak level 100.0 %
     Extraction speed 1.0 X
     Track quality 100.0 %
     Test CRC 097D296B
     Copy CRC 097D296B
     Accurately ripped (confidence 9)  [D7F0F567]  (AR v2)
     Copy OK
Track  2
     Filename I:\Rips\What.cd\02 Ragman.wav
     Pre-gap length  0:00:01.01
     Peak level 100.0 %
     Extraction speed 1.1 X
     Track quality 100.0 %
     Test CRC C71F9D33
     Copy CRC C71F9D33
     Accurately ripped (confidence 8)  [15BC36A9]  (AR v2)
     Copy OK
Track  3
     Filename I:\Rips\What.cd\03 Beautiful Stranger.wav
     Pre-gap length  0:00:01.01
     Peak level 100.0 %
     Extraction speed 1.1 X
     Track quality 99.9 %
     Test CRC DC2F2CC6
     Copy CRC DC2F2CC6
     Accurately ripped (confidence 8)  [F3F9D2B1]  (AR v2)
     Copy OK
Track  4
     Filename I:\Rips\What.cd\04 Real Gone Kid (Extended Version).wav
     Pre-gap length  0:00:01.01
     Peak level 100.0 %
     Extraction speed 1.4 X
     Track quality 99.9 %
     Test CRC D5706E11
     Copy CRC D5706E11
     Accurately ripped (confidence 9)  [EADB88BC]  (AR v2)
     Copy OK
Track  5
     Filename I:\Rips\What.cd\05 Long Window To Love.wav
     Pre-gap length  0:00:01.01
     Peak level 100.0 %
     Extraction speed 1.5 X
     Track quality 100.0 %
     Test CRC 99B8A1C2
     Copy CRC 99B8A1C2
     Accurately ripped (confidence 8)  [57901CB3]  (AR v2)
     Copy OK
Track  6
     Filename I:\Rips\What.cd\06 Fourteen Years.wav
     Pre-gap length  0:00:01.01
     Peak level 100.0 %
     Extraction speed 1.5 X
     Track quality 100.0 %
     Test CRC F2B8ACEC
     Copy CRC F2B8ACEC
     Accurately ripped (confidence 8)  [C3302833]  (AR v2)
     Copy OK
Track  7
     Filename I:\Rips\What.cd\07 Orphans.wav
     Pre-gap length  0:00:01.01
     Peak level 100.0 %
     Extraction speed 1.6 X
     Track quality 100.0 %
     Test CRC 3836842B
     Copy CRC 3836842B
     Accurately ripped (confidence 8)  [F590B375]  (AR v2)
     Copy OK
Track  8
     Filename I:\Rips\What.cd\08 Silhouette.wav
     Pre-gap length  0:00:01.01
     Peak level 100.0 %
     Extraction speed 1.7 X
     Track quality 100.0 %
     Test CRC 3685B4AE
     Copy CRC 3685B4AE
     Accurately ripped (confidence 8)  [C6B29302]  (AR v2)
     Copy OK
Track  9
     Filename I:\Rips\What.cd\09 Your Constant Heart.wav
     Pre-gap length  0:00:01.01
     Peak level 100.0 %
     Extraction speed 1.8 X
     Track quality 100.0 %
     Test CRC E53EE100
     Copy CRC E53EE100
     Accurately ripped (confidence 8)  [E6716022]  (AR v2)
     Copy OK
Track 10
     Filename I:\Rips\What.cd\10 Circus Lights (Acoustic Version).wav
     Pre-gap length  0:00:01.01
     Peak level 100.0 %
     Extraction speed 1.7 X
     Track quality 100.0 %
     Test CRC B2C18E26
     Copy CRC B2C18E26
     Accurately ripped (confidence 8)  [A0A67D39]  (AR v2)
     Copy OK
Track 11
     Filename I:\Rips\What.cd\11 My America.wav
     Pre-gap length  0:00:01.01
     Peak level 100.0 %
     Extraction speed 1.9 X
     Track quality 100.0 %
     Test CRC 656A5D9E
     Copy CRC 656A5D9E
     Accurately ripped (confidence 9)  [222C4701]  (AR v2)
     Copy OK
Track 12
     Filename I:\Rips\What.cd\12 The Very Thing.wav
     Pre-gap length  0:00:01.01
     Peak level 100.0 %
     Extraction speed 1.9 X
     Track quality 100.0 %
     Test CRC AAC55D13
     Copy CRC AAC55D13
     Accurately ripped (confidence 8)  [0CF14EAD]  (AR v2)
     Copy OK
Track 13
     Filename I:\Rips\What.cd\13 Love's Greatest Fears.wav
     Pre-gap length  0:00:01.01
     Peak level 100.0 %
     Extraction speed 2.0 X
     Track quality 100.0 %
     Test CRC B55C0CFA
     Copy CRC B55C0CFA
     Accurately ripped (confidence 8)  [E1A323EB]  (AR v2)
     Copy OK
Track 14
     Filename I:\Rips\What.cd\14 Fellow Hoodlums.wav
     Pre-gap length  0:00:01.01
     Peak level 100.0 %
     Extraction speed 1.7 X
     Track quality 99.9 %
     Test CRC 1E609434
     Copy CRC 1E609434
     Accurately ripped (confidence 8)  [8EAB6649]  (AR v2)
     Copy OK
Track 15
     Filename I:\Rips\What.cd\15 One Day I'll Go Walking.wav
     Pre-gap length  0:00:01.01
     Peak level 100.0 %
     Extraction speed 2.2 X
     Track quality 100.0 %
     Test CRC 87B90D73
     Copy CRC 87B90D73
     Accurately ripped (confidence 8)  [272F6A08]  (AR v2)
     Copy OK
Track 16
     Filename I:\Rips\What.cd\16 Fall So Freely Down.wav
     Pre-gap length  0:00:01.01
     Peak level 100.0 %
     Extraction speed 2.2 X
     Track quality 100.0 %
     Test CRC A4D81161
     Copy CRC A4D81161
     Accurately ripped (confidence 8)  [ABAC0DD6]  (AR v2)
     Copy OK
Track 17
     Filename I:\Rips\What.cd\17 All Over The World.wav
     Pre-gap length  0:00:01.01
     Peak level 100.0 %
     Extraction speed 2.2 X
     Track quality 100.0 %
     Test CRC 476FC8D9
     Copy CRC 476FC8D9
     Accurately ripped (confidence 8)  [CA16A66B]  (AR v2)
     Copy OK
Track 18
     Filename I:\Rips\What.cd\18 Raintown.wav
     Pre-gap length  0:00:01.01
     Peak level 100.0 %
     Extraction speed 2.4 X
     Track quality 100.0 %
     Test CRC 945191D4
     Copy CRC 945191D4
     Accurately ripped (confidence 9)  [065F4A3F]  (AR v2)
     Copy OK
All tracks accurately ripped
No errors occurred
End of status report
---- CUETools DB Plugin V2.1.6
[CTDB TOCID: oUso8ZZLN7et0G3QQL4uUKsM_XM-] found
Submit result: oUso8ZZLN7et0G3QQL4uUKsM_XM- has been confirmed
Track | CTDB Status
  1   | (6/6) Accurately ripped
  2   | (6/6) Accurately ripped
  3   | (6/6) Accurately ripped
  4   | (6/6) Accurately ripped
  5   | (6/6) Accurately ripped
  6   | (6/6) Accurately ripped
  7   | (6/6) Accurately ripped
  8   | (6/6) Accurately ripped
  9   | (6/6) Accurately ripped
 10   | (6/6) Accurately ripped
 11   | (6/6) Accurately ripped
 12   | (6/6) Accurately ripped
 13   | (6/6) Accurately ripped
 14   | (6/6) Accurately ripped
 15   | (6/6) Accurately ripped
 16   | (6/6) Accurately ripped
 17   | (6/6) Accurately ripped
 18   | (6/6) Accurately ripped
==== Log checksum DFF8453E48062A4B1A39ABA1D7F72B1D3AFEFEA95A486E9108FB709DAC8570FC ====
Код:
REM GENRE Rock
REM DATE 2009
REM DISCID 0D101512
REM COMMENT "ExactAudioCopy v1.0b6"
PERFORMER "Deacon Blue"
TITLE "Dignity - The Best Of Deacon Blue (CD2)"
FILE "01 I'll Never Fall In Love Again.wav" WAVE
  TRACK 01 AUDIO
    TITLE "I'll Never Fall In Love Again"
    PERFORMER "Deacon Blue"
    INDEX 01 00:00:00
  TRACK 02 AUDIO
    TITLE "Ragman"
    PERFORMER "Deacon Blue"
    INDEX 00 02:46:61
FILE "02 Ragman.wav" WAVE
    INDEX 01 00:00:00
  TRACK 03 AUDIO
    TITLE "Beautiful Stranger"
    PERFORMER "Deacon Blue"
    INDEX 00 03:07:51
FILE "03 Beautiful Stranger.wav" WAVE
    INDEX 01 00:00:00
  TRACK 04 AUDIO
    TITLE "Real Gone Kid (Extended Version)"
    PERFORMER "Deacon Blue"
    INDEX 00 03:52:52
FILE "04 Real Gone Kid (Extended Version).wav" WAVE
    INDEX 01 00:00:00
  TRACK 05 AUDIO
    TITLE "Long Window To Love"
    PERFORMER "Deacon Blue"
    INDEX 00 07:06:68
FILE "05 Long Window To Love.wav" WAVE
    INDEX 01 00:00:00
  TRACK 06 AUDIO
    TITLE "Fourteen Years"
    PERFORMER "Deacon Blue"
    INDEX 00 03:13:17
FILE "06 Fourteen Years.wav" WAVE
    INDEX 01 00:00:00
  TRACK 07 AUDIO
    TITLE "Orphans"
    PERFORMER "Deacon Blue"
    INDEX 00 02:43:70
FILE "07 Orphans.wav" WAVE
    INDEX 01 00:00:00
  TRACK 08 AUDIO
    TITLE "Silhouette"
    PERFORMER "Deacon Blue"
    INDEX 00 03:33:71
FILE "08 Silhouette.wav" WAVE
    INDEX 01 00:00:00
  TRACK 09 AUDIO
    TITLE "Your Constant Heart"
    PERFORMER "Deacon Blue"
    INDEX 00 03:18:33
FILE "09 Your Constant Heart.wav" WAVE
    INDEX 01 00:00:00
  TRACK 10 AUDIO
    TITLE "Circus Lights (Acoustic Version)"
    PERFORMER "Deacon Blue"
    INDEX 00 04:11:15
FILE "10 Circus Lights (Acoustic Version).wav" WAVE
    INDEX 01 00:00:00
  TRACK 11 AUDIO
    TITLE "My America"
    PERFORMER "Deacon Blue"
    INDEX 00 02:59:71
FILE "11 My America.wav" WAVE
    INDEX 01 00:00:00
  TRACK 12 AUDIO
    TITLE "The Very Thing"
    PERFORMER "Deacon Blue"
    INDEX 00 04:10:45
FILE "12 The Very Thing.wav" WAVE
    INDEX 01 00:00:00
  TRACK 13 AUDIO
    TITLE "Love's Greatest Fears"
    PERFORMER "Deacon Blue"
    INDEX 00 03:32:37
FILE "13 Love's Greatest Fears.wav" WAVE
    INDEX 01 00:00:00
  TRACK 14 AUDIO
    TITLE "Fellow Hoodlums"
    PERFORMER "Deacon Blue"
    INDEX 00 03:40:66
FILE "14 Fellow Hoodlums.wav" WAVE
    INDEX 01 00:00:00
  TRACK 15 AUDIO
    TITLE "One Day I'll Go Walking"
    PERFORMER "Deacon Blue"
    INDEX 00 03:21:14
FILE "15 One Day I'll Go Walking.wav" WAVE
    INDEX 01 00:00:00
  TRACK 16 AUDIO
    TITLE "Fall So Freely Down"
    PERFORMER "Deacon Blue"
    INDEX 00 05:03:17
FILE "16 Fall So Freely Down.wav" WAVE
    INDEX 01 00:00:00
  TRACK 17 AUDIO
    TITLE "All Over The World"
    PERFORMER "Deacon Blue"
    INDEX 00 04:17:17
FILE "17 All Over The World.wav" WAVE
    INDEX 01 00:00:00
  TRACK 18 AUDIO
    TITLE "Raintown"
    PERFORMER "Deacon Blue"
    INDEX 00 03:28:25
FILE "18 Raintown.wav" WAVE
    INDEX 01 00:00:00
Код:
[CUETools log; Date: 24.04.2017 10:43:39; Version: 2.1.5]
[CTDB TOCID: oUso8ZZLN7et0G3QQL4uUKsM_XM-] found.
Track | CTDB Status
  1   | (12/12) Accurately ripped
  2   | (12/12) Accurately ripped
  3   | (12/12) Accurately ripped
  4   | (12/12) Accurately ripped
  5   | (12/12) Accurately ripped
  6   | (12/12) Accurately ripped
  7   | (12/12) Accurately ripped
  8   | (12/12) Accurately ripped
  9   | (12/12) Accurately ripped
 10   | (12/12) Accurately ripped
 11   | (12/12) Accurately ripped
 12   | (12/12) Accurately ripped
 13   | (12/12) Accurately ripped
 14   | (12/12) Accurately ripped
 15   | (12/12) Accurately ripped
 16   | (12/12) Accurately ripped
 17   | (12/12) Accurately ripped
 18   | (12/12) Accurately ripped
[AccurateRip ID: 002c4026-024fc631-0d101512] found.
Track   [  CRC   |   V2   ] Status
 01     [d4c0789c|d7f0f567] (11+10/23) Accurately ripped
 02     [685e5eb5|15bc36a9] (11+09/22) Accurately ripped
 03     [6b92f336|f3f9d2b1] (11+09/22) Accurately ripped
 04     [80a25510|eadb88bc] (11+10/23) Accurately ripped
 05     [956d10aa|57901cb3] (11+09/22) Accurately ripped
 06     [08c9d2e7|c3302833] (11+09/22) Accurately ripped
 07     [14c54cc4|f590b375] (11+09/22) Accurately ripped
 08     [84debe5c|c6b29302] (11+09/22) Accurately ripped
 09     [2de652f3|e6716022] (11+09/22) Accurately ripped
 10     [2d724ef1|a0a67d39] (11+09/22) Accurately ripped
 11     [c703e5bf|222c4701] (11+10/23) Accurately ripped
 12     [31c85879|0cf14ead] (11+09/22) Accurately ripped
 13     [8475e7d1|e1a323eb] (11+09/22) Accurately ripped
 14     [178a89b8|8eab6649] (11+09/22) Accurately ripped
 15     [66b5b1b7|272f6a08] (11+09/22) Accurately ripped
 16     [66f48b28|abac0dd6] (11+09/22) Accurately ripped
 17     [986765df|ca16a66b] (11+09/22) Accurately ripped
 18     [b581c85f|065f4a3f] (11+10/23) Accurately ripped
Offsetted by 12:
 01     [3f909920] (00/23) No match (V2 was not tested)
 02     [8df057c1] (00/22) No match (V2 was not tested)
 03     [50828c82] (00/22) No match (V2 was not tested)
 04     [044cce54] (00/23) No match (V2 was not tested)
 05     [b3066652] (00/22) No match (V2 was not tested)
 06     [adaa2943] (00/22) No match (V2 was not tested)
 07     [6edb6574] (00/22) No match (V2 was not tested)
 08     [02ac0a2c] (00/22) No match (V2 was not tested)
 09     [178374df] (00/22) No match (V2 was not tested)
 10     [5d372521] (00/22) No match (V2 was not tested)
 11     [6a50ea0b] (00/23) No match (V2 was not tested)
 12     [36abe4c1] (00/22) No match (V2 was not tested)
 13     [4a4e96d5] (00/22) No match (V2 was not tested)
 14     [5f699510] (00/22) No match (V2 was not tested)
 15     [1b320517] (00/22) No match (V2 was not tested)
 16     [0e99b928] (00/22) No match (V2 was not tested)
 17     [02ec3183] (00/22) No match (V2 was not tested)
 18     [3aa4a8cf] (00/23) No match (V2 was not tested)
Track Peak [ CRC32  ] [W/O NULL] [  LOG   ]
 --  100,0 [C228E67A] [95729513]
 01  100,0 [097D296B] [DED7BCEE]   CRC32
 02  100,0 [C71F9D33] [7F3BF3CA]   CRC32
 03  100,0 [DC2F2CC6] [38C9F4A6]   CRC32
 04  100,0 [D5706E11] [F755AF3F]   CRC32
 05  100,0 [99B8A1C2] [DBEA5C72]   CRC32
 06  100,0 [F2B8ACEC] [7CFB9CF0]   CRC32
 07  100,0 [3836842B] [DCEFD57F]   CRC32
 08  100,0 [3685B4AE] [430474D3]   CRC32
 09  100,0 [E53EE100] [4BF884DC]   CRC32
 10  100,0 [B2C18E26] [C0BB596C]   CRC32
 11  100,0 [656A5D9E] [85258DA1]   CRC32
 12  100,0 [AAC55D13] [BC458780]   CRC32
 13  100,0 [B55C0CFA] [EDD2FD4E]   CRC32
 14  100,0 [1E609434] [F696227A]   CRC32
 15  100,0 [87B90D73] [7EB6157E]   CRC32
 16  100,0 [A4D81161] [CA40B0EE]   CRC32
 17  100,0 [476FC8D9] [F0DCEAD8]   CRC32
 18  100,0 [945191D4] [5EFC5519]   CRC32
Правила, инструкции, FAQ!!!
Торрент  Добавлен [26 мар 2019, 20:11] Скачать торрент Магнет ссылка
Скачать торрент
[ Размер 23.18 КБ / Просмотров 6 ]

Статус
Проверен 
 
Размер  997.12 МБ
Приватный: Нет (DHT включён)
.torrent скачан  2
 


     Отправить личное сообщение
   
Страница 1 из 1
Показать сообщения за:  Поле сортировки  
Начать новую тему Ответить на тему


Сейчас этот форум просматривают: нет зарегистрированных пользователей и гости: 0


Вы не можете начинать темы
Вы не можете отвечать на сообщения
Вы не можете редактировать свои сообщения
Вы не можете удалять свои сообщения
Вы не можете добавлять вложения

Перейти:  
cron