Начать новую тему Ответить на тему
Статистика раздачи
Размер: 318.39 МБ | Добавлен: 26 мар 2019, 20:04 | Скачали: 0
Сидеров: 0  [0 байт/сек]    Личеров: 0  [0 байт/сек]
Пред. тема | След. тема 

Автор
Сообщение

СообщениеДобавлено: 26 мар 2019, 20:04 

Ответить с цитатой 

David Johansen - Here Comes The Night (1981)
Жанр: Pop-Rock
Носитель: CD
Год издания: 2007
Издатель (лейбл): American Beat Records
Номер по каталогу: 24622
Аудиокодек: FLAC (*.flac)
Тип рипа: tracks+.cue
Битрейт аудио: lossless
Продолжительность: 38:40
Источник (релизер): TestTickles
Наличие сканов в содержимом раздачи: да
Треклист:
01. She Loves Strangers (3:04)
02. Bohemian Love Pad (2:51)
03. You Fool You (3:04)
04. My Obsession (2:42)
05. Marquesa de Sade (3:51)
06. Here Comes The Night (2:56)
07. Suspicion (2:30)
08. Party Tonight (2:55)
09. Havin' So Much Fun (3:43)
10. Rollin' Job (4:03)
11. Heart Of Gold (3:42)
12. Here Comes The Night (Live - Single Version) (3:20)
Personnel:
David Johansen - vocals
Blondie Chaplin - guitar & background vocals
Ernie Brooks - bass
Tony Machine - drums
Bobby Blain - piano
Tom Mandel - organ
with assistance from:
Othello Molineaux - steel drums (2)
Ulysses Delavega - percussion (5)
Elliott Murphy - rhythm guitar (8) and harmonica (11)
 
Here Comes The Night is the 1981 album by American rock singer David Johansen. Originally released by Blue Sky/Epic, this was released by the American Beat label in 2007 with the full length album plus a live version of
"Here Comes The Night".

Код:
Exact Audio Copy V0.99 prebeta 4 from 23. January 2008
EAC extraction logfile from 9. September 2008, 16:11
David Johansen / Here Comes The Night
Used drive  : TSSTcorpDVD+-RW TS-H653B   Adapter: 2  ID: 0
Read mode               : Secure
Utilize accurate stream : Yes
Defeat audio cache      : Yes
Make use of C2 pointers : No
Read offset correction                      : 6
Overread into Lead-In and Lead-Out          : No
Fill up missing offset samples with silence : Yes
Delete leading and trailing silent blocks   : No
Null samples used in CRC calculations       : Yes
Used interface                              : Native Win32 interface for Win NT & 2000
Gap handling                                : Appended to previous track
Used output format : Internal WAV Routines
Sample format      : 44.100 Hz; 16 Bit; Stereo
TOC of the extracted CD
     Track |   Start  |  Length  | Start sector | End sector
    ---------------------------------------------------------
        1  |  0:00.00 |  3:03.69 |         0    |    13793
        2  |  3:03.69 |  2:50.50 |     13794    |    26593
        3  |  5:54.44 |  3:04.18 |     26594    |    40411
        4  |  8:58.62 |  2:42.31 |     40412    |    52592
        5  | 11:41.18 |  3:51.09 |     52593    |    69926
        6  | 15:32.27 |  2:55.41 |     69927    |    83092
        7  | 18:27.68 |  2:29.60 |     83093    |    94327
        8  | 20:57.53 |  2:54.45 |     94328    |   107422
        9  | 23:52.23 |  3:42.58 |    107423    |   124130
       10  | 27:35.06 |  4:02.44 |    124131    |   142324
       11  | 31:37.50 |  3:42.31 |    142325    |   159005
       12  | 35:20.06 |  3:20.25 |    159006    |   174030
Track  1
     Filename C:\FLAC\David Johansen - Here Comes The Night (1981) [FLAC] {2007 American Beat}\01 - She Loves Strangers.wav
     Pre-gap length  0:00:02.00
     Peak level 100.0 %
     Track quality 100.0 %
     Test CRC 8704A6C7
     Copy CRC 8704A6C7
     Track not present in AccurateRip database
     Copy OK
Track  2
     Filename C:\FLAC\David Johansen - Here Comes The Night (1981) [FLAC] {2007 American Beat}\02 - Bohemian Love Pad.wav
     Pre-gap length  0:00:00.70
     Peak level 100.0 %
     Track quality 99.9 %
     Test CRC 72569191
     Copy CRC 72569191
     Track not present in AccurateRip database
     Copy OK
Track  3
     Filename C:\FLAC\David Johansen - Here Comes The Night (1981) [FLAC] {2007 American Beat}\03 - You Fool You.wav
     Pre-gap length  0:00:00.04
     Peak level 100.0 %
     Track quality 100.0 %
     Test CRC E6095ABF
     Copy CRC E6095ABF
     Track not present in AccurateRip database
     Copy OK
Track  4
     Filename C:\FLAC\David Johansen - Here Comes The Night (1981) [FLAC] {2007 American Beat}\04 - My Obsession.wav
     Pre-gap length  0:00:01.00
     Peak level 100.0 %
     Track quality 100.0 %
     Test CRC 31BBACAE
     Copy CRC 31BBACAE
     Track not present in AccurateRip database
     Copy OK
Track  5
     Filename C:\FLAC\David Johansen - Here Comes The Night (1981) [FLAC] {2007 American Beat}\05 - Marquesa de Sade.wav
     Pre-gap length  0:00:01.01
     Peak level 100.0 %
     Track quality 99.9 %
     Test CRC 47C72292
     Copy CRC 47C72292
     Track not present in AccurateRip database
     Copy OK
Track  6
     Filename C:\FLAC\David Johansen - Here Comes The Night (1981) [FLAC] {2007 American Beat}\06 - Here Comes The Night.wav
     Pre-gap length  0:00:00.28
     Peak level 100.0 %
     Track quality 100.0 %
     Test CRC 40C52B39
     Copy CRC 40C52B39
     Track not present in AccurateRip database
     Copy OK
Track  7
     Filename C:\FLAC\David Johansen - Here Comes The Night (1981) [FLAC] {2007 American Beat}\07 - Suspicion.wav
     Pre-gap length  0:00:01.14
     Peak level 100.0 %
     Track quality 100.0 %
     Test CRC D229E236
     Copy CRC D229E236
     Track not present in AccurateRip database
     Copy OK
Track  8
     Filename C:\FLAC\David Johansen - Here Comes The Night (1981) [FLAC] {2007 American Beat}\08 - Party Tonight.wav
     Pre-gap length  0:00:01.13
     Peak level 100.0 %
     Track quality 100.0 %
     Test CRC 2FD42ACA
     Copy CRC 2FD42ACA
     Track not present in AccurateRip database
     Copy OK
Track  9
     Filename C:\FLAC\David Johansen - Here Comes The Night (1981) [FLAC] {2007 American Beat}\09 - Havin' So Much Fun.wav
     Pre-gap length  0:00:01.22
     Peak level 100.0 %
     Track quality 100.0 %
     Test CRC F39155E1
     Copy CRC F39155E1
     Track not present in AccurateRip database
     Copy OK
Track 10
     Filename C:\FLAC\David Johansen - Here Comes The Night (1981) [FLAC] {2007 American Beat}\10 - Rollin' Job.wav
     Pre-gap length  0:00:01.04
     Peak level 100.0 %
     Track quality 100.0 %
     Test CRC FE8F3939
     Copy CRC FE8F3939
     Track not present in AccurateRip database
     Copy OK
Track 11
     Filename C:\FLAC\David Johansen - Here Comes The Night (1981) [FLAC] {2007 American Beat}\11 - Heart Of Gold.wav
     Pre-gap length  0:00:01.18
     Peak level 100.0 %
     Track quality 100.0 %
     Test CRC A7DDE937
     Copy CRC A7DDE937
     Track not present in AccurateRip database
     Copy OK
Track 12
     Filename C:\FLAC\David Johansen - Here Comes The Night (1981) [FLAC] {2007 American Beat}\12 - Here Comes The Night (Live - Single Version).wav
     Pre-gap length  0:00:00.45
     Peak level 100.0 %
     Track quality 100.0 %
     Test CRC 6C6E6A06
     Copy CRC 6C6E6A06
     Track not present in AccurateRip database
     Copy OK
None of the tracks are present in the AccurateRip database
No errors occurred
End of status report
Код:
REM GENRE Rock
REM DATE 1992
REM DISCID 9E09100C
REM COMMENT "ExactAudioCopy v0.99pb4"
PERFORMER "David Johansen"
TITLE "Here Comes The Night"
FILE "01 - She Loves Strangers.wav" WAVE
  TRACK 01 AUDIO
    TITLE "She Loves Strangers"
    PERFORMER "David Johansen"
    INDEX 01 00:00:00
  TRACK 02 AUDIO
    TITLE "Bohemian Love Pad"
    PERFORMER "David Johansen"
    INDEX 00 03:03:16
FILE "02 - Bohemian Love Pad.wav" WAVE
    INDEX 01 00:00:00
  TRACK 03 AUDIO
    TITLE "You Fool You"
    PERFORMER "David Johansen"
    INDEX 00 02:50:47
FILE "03 - You Fool You.wav" WAVE
    INDEX 01 00:00:00
  TRACK 04 AUDIO
    TITLE "My Obsession"
    PERFORMER "David Johansen"
    INDEX 00 03:03:18
FILE "04 - My Obsession.wav" WAVE
    INDEX 01 00:00:00
  TRACK 05 AUDIO
    TITLE "Marquesa de Sade"
    PERFORMER "David Johansen"
    INDEX 00 02:41:30
FILE "05 - Marquesa de Sade.wav" WAVE
    INDEX 01 00:00:00
  TRACK 06 AUDIO
    TITLE "Here Comes The Night"
    PERFORMER "David Johansen"
    INDEX 00 03:50:63
FILE "06 - Here Comes The Night.wav" WAVE
    INDEX 01 00:00:00
  TRACK 07 AUDIO
    TITLE "Suspicion"
    PERFORMER "David Johansen"
    INDEX 00 02:54:30
FILE "07 - Suspicion.wav" WAVE
    INDEX 01 00:00:00
  TRACK 08 AUDIO
    TITLE "Party Tonight"
    PERFORMER "David Johansen"
    INDEX 00 02:28:50
FILE "08 - Party Tonight.wav" WAVE
    INDEX 01 00:00:00
  TRACK 09 AUDIO
    TITLE "Havin' So Much Fun"
    PERFORMER "David Johansen"
    INDEX 00 02:53:28
FILE "09 - Havin' So Much Fun.wav" WAVE
    INDEX 01 00:00:00
  TRACK 10 AUDIO
    TITLE "Rollin' Job"
    PERFORMER "David Johansen"
    INDEX 00 03:41:55
FILE "10 - Rollin' Job.wav" WAVE
    INDEX 01 00:00:00
  TRACK 11 AUDIO
    TITLE "Heart Of Gold"
    PERFORMER "David Johansen"
    INDEX 00 04:01:30
FILE "11 - Heart Of Gold.wav" WAVE
    INDEX 01 00:00:00
  TRACK 12 AUDIO
    TITLE "Here Comes The Night (Live - Single Version)"
    PERFORMER "David Johansen"
    INDEX 00 03:41:72
FILE "12 - Here Comes The Night (Live - Single Version).wav" WAVE
    INDEX 01 00:00:00
Правила, инструкции, FAQ!!!
Торрент  Добавлен [26 мар 2019, 20:04] Скачать торрент Магнет ссылка
Скачать торрент
[ Размер 14.02 КБ / Просмотров 0 ]

Статус
Проверен 
 
Размер  318.39 МБ
Приватный: Нет (DHT включён)
.torrent скачан  0
 


     Отправить личное сообщение
   
Страница 1 из 1
Показать сообщения за:  Поле сортировки  
Начать новую тему Ответить на тему


Сейчас этот форум просматривают: нет зарегистрированных пользователей и гости: 0


Вы не можете начинать темы
Вы не можете отвечать на сообщения
Вы не можете редактировать свои сообщения
Вы не можете удалять свои сообщения
Вы не можете добавлять вложения

Перейти:  
cron