Начать новую тему Ответить на тему
Статистика раздачи
Размер: 478.66 МБ | Добавлен: 26 мар 2019, 18:39 | Скачали: 0
Сидеров: 0  [0 байт/сек]    Личеров: 0  [0 байт/сек]
Пред. тема | След. тема 

Автор
Сообщение

СообщениеДобавлено: 26 мар 2019, 18:39 

Ответить с цитатой 

Danielle Brisebois / Arrive All Over You
Жанр: Pop / Rock
Страна-производитель диска: USA
Год издания: 1994
Издатель (лейбл): EPIC
Номер по каталогу: EK 53319
Аудиокодек: APE (*.ape)
Тип рипа: image+.cue
Битрейт аудио: lossless
Продолжительность: 45:44
Источник (релизер): Europe
Наличие сканов в содержимом раздачи: да
Треклист:
1 - What If God Fell From The Sky
2 - Crawling
3 - Ain`t Gonna Cry No More
4 - Don`t Wanna Talk About Love
5 - Just Missed The Train
6 - Gimme Little Sign
7 - Promise Tomorrow Tonight
8 - Middle My Heart
9 - Maybe Love Will Change Your Mind
10 - Did I Lead You On
11 - Welcome To Love - Now Go Home
Код:
EAC extraction logfile from 7. May 2013, 7:30 for CD
Danielle Brisebois / Arrive All Over You
Used drive  : TSSTcorpCDDVDW SH-224BB   Adapter: 2  ID: 1
Read mode   : Burst
Read offset correction : 0
Overread into Lead-In and Lead-Out : No
Used output format : Internal WAV Routines
                     44.100 Hz; 16 Bit; Stereo
Other options      :
    Fill up missing offset samples with silence : Yes
    Delete leading and trailing silent blocks : No
    Native Win32 interface for Win NT & 2000
Range status and errors
Selected range
     Filename C:\Users\Victor\Music\Danielle Brisebois - Arrive All Over You.wav
     Timing problem 0:00:00
     Timing problem 0:00:30
     Peak level 97.7 %
     CRC 38AE69E7
     Copy finished
No errors occured
End of status report
Код:
REM GENRE "Pop - Rock"
REM DATE 1994
REM DISCID 820AB80B
REM COMMENT "ExactAudioCopy v0.95b4"
PERFORMER "Danielle Brisebois"
TITLE "Arrive All Over You"
FILE "Danielle Brisebois - Arrive All Over You.wav" WAVE
  TRACK 01 AUDIO
    TITLE "What If God Fell From The Sky"
    PERFORMER "Danielle Brisebois"
    INDEX 01 00:00:00
  TRACK 02 AUDIO
    TITLE "Crawling"
    PERFORMER "Danielle Brisebois"
    INDEX 00 02:54:00
    INDEX 01 02:54:43
  TRACK 03 AUDIO
    TITLE "Ain`t Gonna Cry No More"
    PERFORMER "Danielle Brisebois"
    INDEX 00 06:59:30
    INDEX 01 07:00:30
  TRACK 04 AUDIO
    TITLE "Don`t Wanna Talk About Love"
    PERFORMER "Danielle Brisebois"
    INDEX 00 11:47:48
    INDEX 01 11:48:28
  TRACK 05 AUDIO
    TITLE "Just Missed The Train"
    PERFORMER "Danielle Brisebois"
    INDEX 00 15:44:38
    INDEX 01 15:46:53
  TRACK 06 AUDIO
    TITLE "Gimme Little Sign"
    PERFORMER "Danielle Brisebois"
    INDEX 00 20:46:25
    INDEX 01 20:48:45
  TRACK 07 AUDIO
    TITLE "Promise Tomorrow Tonight"
    PERFORMER "Danielle Brisebois"
    INDEX 00 23:51:05
    INDEX 01 23:52:68
  TRACK 08 AUDIO
    TITLE "Middle My Heart"
    PERFORMER "Danielle Brisebois"
    INDEX 00 28:32:68
    INDEX 01 28:33:33
  TRACK 09 AUDIO
    TITLE "Maybe Love Will Change Your Mind"
    PERFORMER "Danielle Brisebois"
    INDEX 00 32:29:18
    INDEX 01 32:30:68
  TRACK 10 AUDIO
    TITLE "Did I Lead You On"
    PERFORMER "Danielle Brisebois"
    INDEX 00 37:33:48
    INDEX 01 37:34:63
  TRACK 11 AUDIO
    TITLE "Welcome To Love - Now Go Home"
    PERFORMER "Danielle Brisebois"
    INDEX 00 41:59:30
    INDEX 01 42:00:30
Правила, инструкции, FAQ!!!
Торрент  Добавлен [26 мар 2019, 18:39] Скачать торрент Магнет ссылка
Скачать торрент
[ Размер 19.8 КБ / Просмотров 1 ]

Статус
Проверен 
 
Размер  478.66 МБ
Приватный: Нет (DHT включён)
.torrent скачан  0
 


     Отправить личное сообщение
   
Страница 1 из 1
Показать сообщения за:  Поле сортировки  
Начать новую тему Ответить на тему


Сейчас этот форум просматривают: нет зарегистрированных пользователей и гости: 0


Вы не можете начинать темы
Вы не можете отвечать на сообщения
Вы не можете редактировать свои сообщения
Вы не можете удалять свои сообщения
Вы не можете добавлять вложения

Перейти:  
cron