Начать новую тему Ответить на тему
Статистика раздачи
Размер: 334.17 МБ | Добавлен: 26 мар 2019, 20:10 | Скачали: 0
Сидеров: 0  [0 байт/сек]    Личеров: 0  [0 байт/сек]
Пред. тема | След. тема 

Автор
Сообщение

СообщениеДобавлено: 26 мар 2019, 20:10 

Ответить с цитатой 

Dalbello / Whore
Жанр: Pop-Rock
Страна-производитель диска: Canada
Год издания: 1996
Издатель (лейбл): EMI Music Canada
Номер по каталогу: 7243 8 37985 2 0
Страна: Canada
Аудиокодек: FLAC (*.flac)
Тип рипа: image+.cue
Битрейт аудио: lossless
Продолжительность: 00:47:05
Источник (релизер): Собственный диск
Наличие сканов в содержимом раздачи: нет
Треклист:
01 - Heavy Boots
02 - Easy
03 - Whore
04 - Eleven
05 - Falling Down
06 - O L'il Boy
07 - Deep Dark Hole
08 - Yippie
09 - All That I Want
10 - Revenge Of Sleeping Beauty
Код:
Exact Audio Copy V0.99 prebeta 3 from 28. July 2007
Отчёт EAC об извлечении, выполненном 21. августа 2013, 16:25
Dalbello / Whore
Дисковод: TSSTcorpCDDVDW SE-S084F   Adapter: 2  ID: 0
Режим чтения                 : Достоверность
Использование точного потока : Да
Отключение кэша аудио        : Да
Использование указателей C2  : Нет
Коррекция смещения при чтении                     : 6
Способность читать области Lead-in и Lead-out     : Нет
Заполнение пропущенных сэмплов тишиной            : Да
Удаление блоков с тишиной в начале и конце        : Нет
При вычислениях CRC использовались нулевые сэмплы : Да
Интерфейс                                         : Встроенный Win32-интерфейс для Win NT/2000
Выходной формат          : Пользовательский кодировщик
Выбранный битрейт        : 128 kBit/s
Качество                 : Высокий
Добавление ID3-тэга      : Нет
Утилита сжатия           : C:\Program Files (x86)\Exact Audio Copy\FLAC\FLAC.EXE
Дополнительные параметры : -6 -V -T "ARTIST=%a" -T "TITLE=%t" -T "ALBUM=%g" -T "DATE=%y" -T "TRACKNUMBER=%n" -T "GENRE=%m" -T "COMMENT=%e" %s -o %d
TOC извлечённого CD
     Трек |   Старт  | Длительность | Начальный сектор | Конечный сектор
    ---------------------------------------------------------------------
       1  |  0:00.00 |    4:31.32   |           0      |      20356
       2  |  4:31.32 |    4:14.03   |       20357      |      39409
       3  |  8:45.35 |    4:16.25   |       39410      |      58634
       4  | 13:01.60 |    4:51.40   |       58635      |      80499
       5  | 17:53.25 |    4:18.70   |       80500      |      99919
       6  | 22:12.20 |    4:11.17   |       99920      |     118761
       7  | 26:23.37 |    4:35.30   |      118762      |     139416
       8  | 30:58.67 |    4:32.35   |      139417      |     159851
       9  | 35:31.27 |    5:00.53   |      159852      |     182404
      10  | 40:32.05 |    6:33.05   |      182405      |     211884
Характеристики диапазона извлечения и сообщения об ошибках
Выбранный диапазон
     Имя файла D:\FLAC\1996 Dalbello -  Whore flac\Dalbello - Whore.wav
     Пиковый уровень 98.8 %
     Качество диапазона 100.0 %
     CRC теста 37C4C78C
     CRC копии 37C4C78C
     Копирование... OK
Ошибок не произошло
AccurateRip: сводка
Трек  1  точное извлечение (доверие 33)  [41080622]
Трек  2  точное извлечение (доверие 33)  [3CAE0D08]
Трек  3  точное извлечение (доверие 33)  [8F5AF0BC]
Трек  4  точное извлечение (доверие 32)  [6F75D86D]
Трек  5  точное извлечение (доверие 33)  [3F312D09]
Трек  6  точное извлечение (доверие 33)  [4BAA3219]
Трек  7  точное извлечение (доверие 33)  [287E57B3]
Трек  8  точное извлечение (доверие 33)  [8DDD516C]
Трек  9  точное извлечение (доверие 33)  [34D035B7]
Трек 10  точное извлечение (доверие 32)  [360258FD]
Все треки извлечены точно
Конец отчёта
Код:
REM GENRE Rock
REM DATE 1996
REM DISCID 7E0B090A
REM COMMENT "ExactAudioCopy v0.99pb3"
PERFORMER "Dalbello"
TITLE "Whore"
FILE "Dalbello - Whore.flac" WAVE
  TRACK 01 AUDIO
    TITLE "Heavy Boots"
    PERFORMER "Dalbello"
    INDEX 01 00:00:00
  TRACK 02 AUDIO
    TITLE "Easy"
    PERFORMER "Dalbello"
    INDEX 00 04:31:30
    INDEX 01 04:31:32
  TRACK 03 AUDIO
    TITLE "Whore"
    PERFORMER "Dalbello"
    INDEX 00 08:45:27
    INDEX 01 08:45:35
  TRACK 04 AUDIO
    TITLE "Eleven"
    PERFORMER "Dalbello"
    INDEX 00 13:01:57
    INDEX 01 13:01:60
  TRACK 05 AUDIO
    TITLE "Falling Down"
    PERFORMER "Dalbello"
    INDEX 00 17:53:22
    INDEX 01 17:53:25
  TRACK 06 AUDIO
    TITLE "O L'il Boy"
    PERFORMER "Dalbello"
    INDEX 00 22:12:12
    INDEX 01 22:12:20
  TRACK 07 AUDIO
    TITLE "Deep Dark Hole"
    PERFORMER "Dalbello"
    INDEX 00 26:23:35
    INDEX 01 26:23:37
  TRACK 08 AUDIO
    TITLE "Yippie"
    PERFORMER "Dalbello"
    INDEX 00 30:58:65
    INDEX 01 30:58:67
  TRACK 09 AUDIO
    TITLE "All That I Want"
    PERFORMER "Dalbello"
    INDEX 00 35:31:25
    INDEX 01 35:31:27
  TRACK 10 AUDIO
    TITLE "Revenge Of Sleeping Beauty"
    PERFORMER "Dalbello"
    INDEX 01 40:32:05
Правила, инструкции, FAQ!!!
Торрент  Добавлен [26 мар 2019, 20:10] Скачать торрент Магнет ссылка
Скачать торрент
[ Размер 13.96 КБ / Просмотров 2 ]

Статус
Проверен 
 
Размер  334.17 МБ
Приватный: Нет (DHT включён)
.torrent скачан  0
 


     Отправить личное сообщение
   
Страница 1 из 1
Показать сообщения за:  Поле сортировки  
Начать новую тему Ответить на тему


Сейчас этот форум просматривают: нет зарегистрированных пользователей и гости: 0


Вы не можете начинать темы
Вы не можете отвечать на сообщения
Вы не можете редактировать свои сообщения
Вы не можете удалять свои сообщения
Вы не можете добавлять вложения

Перейти:  
cron