Начать новую тему Ответить на тему
Статистика раздачи
Размер: 384.56 МБ | Добавлен: 26 мар 2019, 20:10 | Скачали: 0
Сидеров: 0  [0 байт/сек]    Личеров: 0  [0 байт/сек]
Пред. тема | След. тема 

Автор
Сообщение

СообщениеДобавлено: 26 мар 2019, 20:10 

Ответить с цитатой 

Dalbello / Live At Rockpalast
Жанр: Pop Rock
Носитель: CD
Страна-производитель диска (релиза): Germany
Год издания: 2015
Издатель (лейбл): Repertoire Records
Номер по каталогу: REPUM 1268
Страна исполнителя (группы): Canada
Аудиокодек: FLAC (*.flac)
Тип рипа: image+.cue
Битрейт аудио: lossless
Продолжительность: 00:59:51
Источник (релизер): собственный диск
Наличие сканов в содержимом раздачи: нет
Треклист:
01 Cardinal Sin
02 Devious Nature
03 Path Of Least Resistance
04 Baby Doll
05 Wait For An Answer
06 Animal
07 Guilty By Association
08 She Pretends
09 Gonna Get Close To You
10 Black On Black
11 Animal (Reprise)
Код:
Exact Audio Copy V1.0 beta 3 from 29. August 2011
Отчёт EAC об извлечении, выполненном 17. июля 2015, 21:20
Dalbello / Live At Rockpalast
Дисковод: PIONEER BD-RW   BDR-209D   Adapter: 0  ID: 0
Режим чтения                 : Достоверность
Использование точного потока : Да
Отключение кэша аудио        : Да
Использование указателей C2  : Нет
Коррекция смещения при чтении                     : 667
Способность читать области Lead-in и Lead-out     : Нет
Заполнение пропущенных сэмплов тишиной            : Да
Удаление блоков с тишиной в начале и конце        : Нет
При вычислениях CRC использовались нулевые сэмплы : Да
Интерфейс                                         : Встроенный Win32-интерфейс для Win NT/2000
Выходной формат          : Пользовательский кодировщик
Выбранный битрейт        : 128 kBit/s
Качество                 : Высокий
Добавление ID3-тега      : Нет
Утилита сжатия           : C:\Program Files (x86)\Exact Audio Copy\Flac\flac.exe
Дополнительные параметры : -V -8 -T "Date=%year%" -T "Genre=%genre%" %source%
TOC извлечённого CD
     Трек |   Старт  | Длительность | Начальный сектор | Конечный сектор
    ---------------------------------------------------------------------
       1  |  0:00.00 |    4:44.72   |           0      |      21371
       2  |  4:44.72 |    4:07.56   |       21372      |      39952
       3  |  8:52.53 |    5:14.66   |       39953      |      63568
       4  | 14:07.44 |    5:00.33   |       63569      |      86101
       5  | 19:08.02 |    7:36.50   |       86102      |     120351
       6  | 26:44.52 |    5:39.03   |      120352      |     145779
       7  | 32:23.55 |    4:25.54   |      145780      |     165708
       8  | 36:49.34 |    5:41.23   |      165709      |     191306
       9  | 42:30.57 |    4:56.73   |      191307      |     213579
      10  | 47:27.55 |    5:30.02   |      213580      |     238331
      11  | 52:57.57 |    6:53.58   |      238332      |     269364
Характеристики диапазона извлечения и сообщения об ошибках
Выбранный диапазон
     Имя файла D:\Flac\Новая папка\Dalbello - Live At Rockpalast.wav
     Пиковый уровень 99.9 %
     Скорость извлечения 7.8 X
     Качество диапазона 100.0 %
     CRC теста 9F8A0E4F
     CRC копии 9F8A0E4F
     Копирование... OK
Ошибок не произошло
AccurateRip: сводка
Трек  1  : извлечено точно (доверие 1)  [AA9E1A26]  (AR v2)
Трек  2  : извлечено точно (доверие 1)  [93DDECF2]  (AR v2)
Трек  3  : извлечено точно (доверие 1)  [EC2FD1E6]  (AR v2)
Трек  4  : извлечено точно (доверие 1)  [43DB8067]  (AR v2)
Трек  5  точность не определена (достоверность 1)  [5FEEE876], AccurateRip вернул [628E2B1B]  (AR v2)
Трек  6  : извлечено точно (доверие 1)  [A760E1A4]  (AR v2)
Трек  7  : извлечено точно (доверие 1)  [E7FA099A]  (AR v2)
Трек  8  : извлечено точно (доверие 1)  [949BC398]  (AR v2)
Трек  9  : извлечено точно (доверие 1)  [20FBB334]  (AR v2)
Трек 10  : извлечено точно (доверие 1)  [5155B0C6]  (AR v2)
Трек 11  : извлечено точно (доверие 1)  [B1CC1C57]  (AR v2)
10 трек(и) скопированы точно
 1 трек(и) не удалось проверить на точность
Некоторые треки не прошли проверку на точность
Конец отчёта
==== Контрольная сумма отчёта 4949071AB0E51111EBF58DA1BB45E6A44609B893843210F79D7BDA5EC23594D6 ====
Доп. информация: Dalbello Live At Rockpalast 1985
Правила, инструкции, FAQ!!!
Торрент  Добавлен [26 мар 2019, 20:10] Скачать торрент Магнет ссылка
Скачать торрент
[ Размер 15.74 КБ / Просмотров 0 ]

Статус
Проверен 
 
Размер  384.56 МБ
Приватный: Нет (DHT включён)
.torrent скачан  0
 


     Отправить личное сообщение
   
Страница 1 из 1
Показать сообщения за:  Поле сортировки  
Начать новую тему Ответить на тему


Сейчас этот форум просматривают: нет зарегистрированных пользователей и гости: 0


Вы не можете начинать темы
Вы не можете отвечать на сообщения
Вы не можете редактировать свои сообщения
Вы не можете удалять свои сообщения
Вы не можете добавлять вложения

Перейти:  
cron